ΑΛΑΝΤΙΝ ΤΡΙΛΟΓΙΑ (1992-1994-1995) - ALADDIN TRILOGY «ΜΕΤΑΓΛΩΤΤΙΣΜΕΝΟ ΣΤΑ ΕΛΛΗΝΙΚΑ» - 7 December 2013 - Ελληνική Τηλεόραση | Διαδικτυακά Παιχνίδια & Κανάλια
Sunday - Κυριακή, 04 December - Δεκέμβριος 2016, 12:10
Καλωσόρισες Guest | RSS

EZAccess Ελληνική Τηλεόραση

Κεντρική Σελίδα » 2013 » December - Δεκέμβριος » 7 » ΑΛΑΝΤΙΝ ΤΡΙΛΟΓΙΑ (1992-1994-1995) - ALADDIN TRILOGY «ΜΕΤΑΓΛΩΤΤΙΣΜΕΝΟ ΣΤΑ ΕΛΛΗΝΙΚΑ»
ΑΛΑΝΤΙΝ ΤΡΙΛΟΓΙΑ (1992-1994-1995) - ALADDIN TRILOGY «ΜΕΤΑΓΛΩΤΤΙΣΜΕΝΟ ΣΤΑ ΕΛΛΗΝΙΚΑ»


ΑΛΑΝΤΙΝ ΤΡΙΛΟΓΙΑ (1992-1994-1995) - ALADDIN TRILOGY «ΜΕΤΑΓΛΩΤΤΙΣΜΕΝΟ ΣΤΑ ΕΛΛΗΝΙΚΑ»


Τίτλος ταινίας: 1) ALADDIN. 2) THE RETURN OF JAFAR. 3) ALADDIN AND THE KING OF THIEVES.
Ελληνικός Τίτλος: 1) ΑΛΑΝΤΙΝ. 2) Η ΕΠΙΣΤΡΟΦΗ ΤΟΥ ΤΖΑΦΑΡ. 3) Ο ΑΛΑΝΤΙΝ ΚΑΙ Ο ΒΑΣΙΛΙΑΣ ΤΩΝ ΚΛΕΦΤΩΝ.
Έτος παραγωγής: 1) 1992 (Ελλάδα σε DVD ΟΚΤ 2004). 2) 1994 (Ελλάδα σε DVD ΙΑΝ 2005). 3) 1995 (Ελλάδα σε DVD ΦΕΒ 2005).
Είδος ταινίας: Κινούμενα Σχέδια, Παιδικά.
Στούντιο Παραγωγής: Disney.
Γλώσσα ομιλίας: Ελληνικά (Μεταγλωτισμένα).
Διάρκεια ταινίας: 1) 1 ώρα 26 λεπτά. 2) 1 ώρα 06 λεπτά. 3) 1 ώρα 18 λεπτά.
Σκηνοθεσία: 1) Ron Clements, John Musker. 2) Toby Shelton, Tad Stones 3) Tad Stones.
Ηθοποιοί (Μεταγλώτιση): 1-2-3) Χρήστος Στασινόπουλος (Αλαντίν), Κατερίνα Γιαμαλή (Γιασμίν), Ζανό Ντάνιας (Τζίνι), Νίκος Πόγκας (Τζαφάρ), Σπύρος Μπιμπίλας (Ιάγκο), Σπύρος Κωνσταντόπουλος (Σουλτάνος).


ALADDIN - ΑΛΑΝΤΙΝ (1992)
Ο Αλαντίν, ένα χαμίνι με τάση για κλοπή, ζει με το πιστό του πίθηκο στους δρόμους της Βαγδάτης. Μεγάλος του πόθος είναι η πριγκίπισσα Τζασμίν που την γνωρίζει όταν εκείνη βγαίνει κρυφά από το παλάτι. Ο κακός σουλτάνος Τζαφάρ θα τον κλείσει στη φυλακή και με τη βοήθεια του μαγικού λυχναριού περιμένει να αρπάξει την εξουσία. Όμως, ο θρύλος λέει πως το τζίνι του λυχναριού εμφανίζεται μονάχα στους αγνούς στην καρδιά. (cine.gr)

THE RETURN OF JAFAR - Η ΕΠΙΣΤΡΟΦΗ ΤΟΥ ΤΖΑΦΑΡ (1994)
Ο Αλαντίν συνηθίζει στην υψηλή ζωή κι ετοιμάζεται για τον γάμο με την Τζασμίν. Το τζίνι επιστρέφει από την άκρη του κόσμου και καλύπτει τις επικλήσεις βοήθειας του παπαγάλου Ιάγκο. Όμως, το λυχνάρι που κρατάει κλεισμένο τον δόλιο Τζαφάρ ανοίγει από έναν χαζό εγκληματία. Η επιστροφή του Τζαφάρ στην Άγκραμπα σημαίνει μόνο εκδίκηση. (cine.gr)

ALADDIN AND THE KING OF THIEVES - Ο ΑΛΑΝΤΙΝ ΚΑΙ Ο ΒΑΣΙΛΙΑΣ ΤΩΝ ΚΛΕΦΤΩΝ (1995)
Πρόκειται για μια νέα περιπέτεια εμπνευσμένη από το μύθο "Ο Αλή Μπαμπάς και οι 40 κλέφτες" με προσεγμένη δουλειά, όμορφο σκίτσο, μουσική & τραγούδια.
Αναστάτωση επικρατεί στην πόλη της Αγκραμπα καθώς όλοι ετοιμάζονται για τη μεγάλη γιορτή: το μαγικό γάμο της πριγκίπισσας Τζασμίν και του Αλαντίν. Πριν το γάμο, όμως, ο Αλαντίν πρέπει να αντιμετωπίσει τους θρυλικούς Σαράντα Κλέφτες και να τους εμποδίσει να κλέψουν το μυστηριώδες γαμήλιο δώρο έναν μάντη που τα βλέπει όλα και που θα τους οδηγήσει σε αμύθητα πλούτη. Ο Αλαντίν και η παρέα του η Τζασμίν, ο Αμπού, το Χαλί και φυσικά το ανεπανάληπτο Τζίνι θα αντιμετωπίσουν μια σειρά από απίστευτες περιπέτειες και θα φτιάξουν ένα σωρό σενάρια για να γλιτώσουν από το φοβερό Βασιλιά των Κλεφτών και τη συμμορία του. Ακολουθήστε τους στη μοναδική αυτή περιπέτεια και δείτε φοβερά μυστικά να αποκαλύπτονται, τον Αλαντίν να βρίσκει το χαμένο του πατέρα και τους φίλους μας να ανακαλύπτουν το χαμένο θησαυρό!


ALADDIN - ΑΛΑΝΤΙΝ (1992)








THE RETURN OF JAFAR - Η ΕΠΙΣΤΡΟΦΗ ΤΟΥ ΤΖΑΦΑΡ (1994)







ALADDIN AND THE KING OF THIEVES - Ο ΑΛΑΝΤΙΝ ΚΑΙ Ο ΒΑΣΙΛΙΑΣ ΤΩΝ ΚΛΕΦΤΩΝ (2009)







Format                           : AVI
Format/Info                    : Audio Video Interleave
File size                          : 1.30 GiB                           1.22 GiB                1.07 GiB
Duration                         : 1h 26mn                           1h 6mn              1h 18mn  
Overall bit rate                : 2 145 Kbps                        2 633 Kbps         1 964 Kbps

Video
ID                                  : 0
Format                            : MPEG-4 Visual
Format profile                  : Advanced Simple@L5
Format settings, BVOP      : 2
Format settings, QPel            : No
Format settings, GMC             : No warppoints
Format settings, Matrix          : Default (H.263)
Codec ID                         : XVID
Codec ID/Hint                    : XviD
Duration                          : 1h 26mn                         1h 6mn            1h 18mn
Bit rate                            : 1 753 Kbps                     2 433 Kbps         1 764 Kbps
Width                            : 720 pixels                        720 pixels           720 pixels
Height                           : 400 pixels                        544 pixels           400 pixels
Display aspect ratio             : 16:9                            4:3                 16:9
Frame rate                       : 25.000 fps
Color space                      : YUV
Chroma subsampling               : 4:2:0
Bit depth                        : 8 bits
Scan type                        : Progressive
Compression mode                 : Lossy
Bits/(Pixel*Frame)               : 0.243                           0.248                   0.245
Stream size                      : 1.06 GiB (82%)         1.13 GiB (92%)       987 MiB (90%)
Writing library                  : XviD 1.2.1 (UTC 2008-12-04)

Audio
ID                               : 1
Format                           : AC-3
Format/Info                      : Audio Coding 3
Mode extension                   : CM (complete main)
Codec ID                         : 2000
Duration                         : 1h 26mn                         1h 6mn                 1h 18mn
Bit rate mode                    : Constant
Bit rate                         : 384 Kbps                          192 Kbps                  192 Kbps
Channel(s)                       : 6 channels                     2 channels               2 channels
Channel positions                : Front: L C R, Side: L R, LFE     Front: L R    Front: L R
Sampling rate                    : 48.0 KHz
Bit depth                        : 16 bits
Compression mode                 : Lossy
Stream size                      : 238 MiB (18%)              91.0 MiB (7%)             107 MiB (10%)
Alignment                        : Aligned on interleaves
Interleave, duration             : 64 ms (1.60 video frames)
Interleave, preload duration     : 192 ms

Κατεβάστε εδώ:
lixnarakitrilogia1992-1994-1995.part1.rar.html
lixnarakitrilogia1992-1994-1995.part2.rar.html

Κωδικός αποσυμπίεσης των αρχείων rar:
thelwseires

Κατηγορία: ΑΛΛΑ ΚΑΝΑΛΙΑ (ΔΙΑΦΟΡΑ) |
Only registered users can add comments.
[ Registration | Login ]

Σύνδεση / Εγγραφή

Login:
Password:

Φιλικές Σελίδες

Αναζήτηση Σελίδας

Αναζήτηση Μέσω Google

EZ Archive