ΑΣΤΕΡΙΞ: Ο ΓΑΛΑΤΗΣ (1967) - Asterix: The Gaul [Asterix: Le Gaulois] «ΜΕΤΑΓΛΩΤΤΙΣΜΕΝΟ ΣΤΑ ΕΛΛΗΝΙΚΑ» - 28 September 2013 - Ελληνική Τηλεόραση | Διαδικτυακά Παιχνίδια & Κανάλια
Saturday - Σάββατο, 03 December - Δεκέμβριος 2016, 08:45
Καλωσόρισες Guest | RSS

EZAccess Ελληνική Τηλεόραση

Κεντρική Σελίδα » 2013 » September - Σεπτέμβριος » 28 » ΑΣΤΕΡΙΞ: Ο ΓΑΛΑΤΗΣ (1967) - Asterix: The Gaul [Asterix: Le Gaulois] «ΜΕΤΑΓΛΩΤΤΙΣΜΕΝΟ ΣΤΑ ΕΛΛΗΝΙΚΑ»
ΑΣΤΕΡΙΞ: Ο ΓΑΛΑΤΗΣ (1967) - Asterix: The Gaul [Asterix: Le Gaulois] «ΜΕΤΑΓΛΩΤΤΙΣΜΕΝΟ ΣΤΑ ΕΛΛΗΝΙΚΑ»


ΑΣΤΕΡΙΞ: Ο ΓΑΛΑΤΗΣ (1967) - Asterix: The Gaul [Asterix: Le Gaulois] «ΜΕΤΑΓΛΩΤΤΙΣΜΕΝΟ ΣΤΑ ΕΛΛΗΝΙΚΑ»


ή ο Αστερίξ επιτίθεται εναντίον των βαρβάρων

Χώρες παραγωγής: Γαλλία - Βέλγιο
Χρονιά παραγωγής: 1967
Πρώτη προβολή στην Ευρώπη: 20 Δεκεμβρίου 1967 - Γαλλία
Διάρκεια: 01:06:02
Κατηγορία: Κλασικά Κινούμενα Σχέδια
Σκηνοθεσία: Ray Goossens
Παραγωγή: Georges Dargaud
Σενάριο: Προσαρμογή από τους Willy Lateste, Jos Marissen
και Laszlo Molnar της ιστορίας των Rene Goscinny & Albert Uderzo
Καλλιτεχνική διεύθυνση: Claude Lambert  & Michou Wiggers
Μουσική: Gerard Calvi

Η δημιουργία και η επεξεργασία των κινουμένων σχεδίων έγινε στα studios
της Belvision, στην πρωτεύουσα του Βελγίου.

 Πλοκή
     Σωτήριο έτος 50 π.Χ. κι ένα γαλατικό χωριό αντιστέκεται ακόμα στην παντοδυναμία του Ιουλίου Καίσαρα. Ο Ρωμαίος αξιωματικός του διπλανού στρατοπέδου θέλει να μάθει πάση θυσία το μυστικό της δύναμης των Γαλάτων και στέλνει κατάσκοπο στο χωριό. Το μυστικό είναι ένα μαγικό φίλτρο και οι Γαλάτες δεν είναι τόσο χαζοί για να τους το δώσουν...



General
     Format : AVI
     Format/Info : Audio Video Interleave
     File size : 1.23 GiB
     Duration : 1h 6mn
     Overall bit rate : 2 660 Kbps
     Writing application : VirtualDubMod 1.5.10.2 (build 2542/release)
     Writing library : VirtualDubMod build 2542/release
Video
     ID : 0
     Format : MPEG-4 Visual
     Format profile : AdvancedSimple@L5
     Format settings, BVOP : Yes
     Format settings, QPel : No
     Format settings, GMC : No warppoints
     Format settings, Matrix : Default (H.263)
     Muxing mode : Packed bitstream
     Codec ID : XVID
     Codec ID/Hint : XviD
     Duration : 1h 6mn
     Bit rate : 2 396 Kbps
     Width : 720 pixels
     Height : 544 pixels
     Display aspect ratio : 4:3
     Frame rate : 25.000 fps
     Resolution : 24 bits
     Colorimetry : 4:2:0
     Scan type : Progressive
     Bits/(Pixel*Frame) : 0.245
     Stream size : 1.11 GiB (90%)
     Writing library : XviD 64
Audio
     ID : 1
     Format : AC-3
     Format/Info : Audio Coding 3
     Codec ID : 2000
     Duration : 1h 6mn
     Bit rate mode : Constant
     Bit rate : 256 Kbps
     Channel(s) : 2 channels
     Channel positions : L R
     Sampling rate : 48.0 KHz
     Stream size : 121 MiB (10%)
     Alignment : Split accross interleaves
     Interleave, duration : 64 ms (1.60 video frames)
     Interleave, preload duration : 500 ms

Κατεβάστε εδώ:

A.O.GALATHS-GrAudio.avi

Κατηγορία: ΑΛΛΑ ΚΑΝΑΛΙΑ (ΔΙΑΦΟΡΑ) |
Only registered users can add comments.
[ Registration | Login ]

Σύνδεση / Εγγραφή

Login:
Password:

Φιλικές Σελίδες

Αναζήτηση Σελίδας

Αναζήτηση Μέσω Google

EZ Archive