ΑΣΥΛΛΗΠΤΗ ΑΠΟΔΡΑΣΗ (1966) «ΕΛΛΗΝΙΚΟΙ ΥΠΟΤΙΤΛΟΙ» - Louis de Funes, La Grande Vadrouille 1966 «GREEK SUBS» - 5 October 2014 - Ελληνική Τηλεόραση | Διαδικτυακά Παιχνίδια & Κανάλια
Sunday - Κυριακή, 04 December - Δεκέμβριος 2016, 12:09
Καλωσόρισες Guest | RSS

EZAccess Ελληνική Τηλεόραση

Κεντρική Σελίδα » 2014 » October - Οκτώβριος » 5 » ΑΣΥΛΛΗΠΤΗ ΑΠΟΔΡΑΣΗ (1966) «ΕΛΛΗΝΙΚΟΙ ΥΠΟΤΙΤΛΟΙ» - Louis de Funes, La Grande Vadrouille 1966 «GREEK SUBS»
ΑΣΥΛΛΗΠΤΗ ΑΠΟΔΡΑΣΗ (1966) «ΕΛΛΗΝΙΚΟΙ ΥΠΟΤΙΤΛΟΙ» - Louis de Funes, La Grande Vadrouille 1966 «GREEK SUBS»



ΑΣΥΛΛΗΠΤΗ ΑΠΟΔΡΑΣΗ (1966) «ΕΛΛΗΝΙΚΟΙ ΥΠΟΤΙΤΛΟΙ»  - Louis de Funes, La Grande Vadrouille 1966 «GREEK SUBS»

ΕΛΛΗΝΙΚΟΣ ΤΙΤΛΟΣ: ΑΣΥΛΛΗΠΤΗ ΑΠΟΔΡΑΣΗ
ΕΙΔΟΣ: ΚΩΜΩΔΙΑ
ΣΕΝΑΡΙΟ: Gerard Oury, Daniele Thompson, Georges Tabet, Andrε Tabet, Marcel Jullian
ΣΚΗΝΟΘΕΣΙΑ: Gerard Oury  
ΜΟΥΣΙΚΗ: Georges Auric
ΠΑΙΖΟΥΝ: Louis de Funes, Bourvil, Claudio Brook, Andrea Parisy, Mike Marshall, Mary Marquet, Pierre Bertin  K.ά
ΕΤΟΣ ΚΥΚΛΟΦΟΡΙΑΣ: 1966
ΔΙΑΡΚΕΙΑ: 118 min
ΓΛΩΣΣΑ: Γαλλικά, Αγγλικά
ΥΠΟΤΙΤΛΟΙ: Ελληνικοί Ενσωματωμένοι και σε ξεχωριστό αρχείο (srt)

ΥΠΟΘΕΣΗ
Κατά τη διάρκεια του Β' Παγκοσμίου Πολέμου ... Όταν το μαχητικό αεροσκάφος τους καταρρίφθηκε από τους Γερμανούς, τρεις Άγγλοι αεροπόροι πέφτουν με αλεξίπτωτο στη  κατεχόμενη από τους Ναζί Γαλλία.
Ο ένας προσγειώνεται στην σκαλωσιά ένος αξιαγάπητου ζωγράφου και διακοσμητή, του Αγκουστίν.
Ο δεύτερος προσγειώνεται πάνω από μια αίθουσα συναυλιών και διασώζεται από τον οξύθυμο, αλλά πατριώτη, μαέστρο Στανισλάς Λεφορτ και ο τρίτος καταλήγει στο κλουβί μιας βίδρας σε ένα ζωολογικό κήπο του Παρισιού.
Όταν προσπαθούν να βοηθήσουν τους αεροπόρους που έχουν δώσει σημείο συνάντησης στα τουρκικά λουτρά στο Παρίσι, ο Αγκουστίν και ο Στανισλάς γρήγορα διαπιστώνουν ότι και οι ίδιοι έχουν γίνει στόχοι για τους Γερμανούς στρατιώτες.
Επικουρούμενοι από την κόρη ενός κουκλοπαίχτη και από μία καλόγρια με φανερά αντι-ναζιστικά αισθήματα, οι δύο απρόθυμοι ήρωες συνοδεύουν τους τρεις αεροπόρους σε ένα απερίσκεπτο οδοιπορικό κατά μήκος της Γαλλίας προς την ουδέτερη ζώνη και την ασφάλεια...



















ΤΕΧΝΙΚΑ ΧΑΡΑΚΤΗΡΙΣΤΙΚΑ
General
Format                                   : Matroska
Format version                           : Version 2
File size                                : 1.26 GiB
Duration                                 : 1h 58mn
Overall bit rate                         : 1 513 Kbps
Writing application                      : HandBrake 0.9.4

Video
ID                                       : 1
Format                                   : AVC
Format/Info                              : Advanced Video Codec
Format profile                           : High@L3.0
Format settings, CABAC                   : Yes
Format settings, ReFrames                : 3 frames
Codec ID                                 : V_MPEG4/ISO/AVC
Duration                                 : 1h 58mn
Bit rate                                 : 1 250 Kbps
Width                                    : 720 pixels
Height                                   : 304 pixels
Display aspect ratio                     : 2.35:1
Frame rate mode                          : Constant
Frame rate                               : 25.000 fps
Color space                              : YUV
Chroma subsampling                       : 4:2:0
Bit depth                                : 8 bits
Scan type                                : Progressive
Bits/(Pixel*Frame)                       : 0.228
Stream size                              : 1.02 GiB (81%)
Writing library                          : x264 core 79

Audio
ID                                       : 2
Format                                   : AC-3
Format/Info                              : Audio Coding 3
Mode extension                           : CM (complete main)
Format settings, Endianness              : Big
Codec ID                                 : A_AC3
Duration                                 : 1h 58mn
Bit rate mode                            : Constant
Bit rate                                 : 256 Kbps
Channel(s)                               : 2 channels
Channel positions                        : Front: L R
Sampling rate                            : 48.0 KHz
Bit depth                                : 16 bits
Compression mode                         : Lossy
Stream size                              : 218 MiB (17%)
Language                                 : French
Default                                  : Yes
Forced                                   : No

Text
ID                                       : 3
Format                                   : VobSub
Codec ID                                 : S_VOBSUB
Codec ID/Info                            : The same subtitle format used on DVDs
Language                                 : Greek
Default                                  : Yes
Forced                                   : No


--------------------------------
Κατεβάστε εδώ:
asilipth-apodrash1966.rar

Κωδικός αποσυμπίεσης των αρχείων rar:
thelwseires
--------------------------------
 

Κατηγορία: ΑΛΛΑ ΚΑΝΑΛΙΑ (ΔΙΑΦΟΡΑ) |
Only registered users can add comments.
[ Registration | Login ]

Σύνδεση / Εγγραφή

Login:
Password:

Φιλικές Σελίδες

Αναζήτηση Σελίδας

Αναζήτηση Μέσω Google

EZ Archive