ΒΡΕΧΕΙ ΚΕΦΤΕΔΕΣ 1 (2009) - CLOUDY WITH A CHANCE OF MEATBALLS 1 «ΜΕΤΑΓΛΩΤΤΙΣΜΕΝΟ ΣΤΑ ΕΛΛΗΝΙΚΑ» - 7 October 2013 - Ελληνική Τηλεόραση | Διαδικτυακά Παιχνίδια & Κανάλια
Sunday - Κυριακή, 11 December - Δεκέμβριος 2016, 04:11
Καλωσόρισες Guest | RSS

EZAccess Ελληνική Τηλεόραση

Κεντρική Σελίδα » 2013 » October - Οκτώβριος » 7 » ΒΡΕΧΕΙ ΚΕΦΤΕΔΕΣ 1 (2009) - CLOUDY WITH A CHANCE OF MEATBALLS 1 «ΜΕΤΑΓΛΩΤΤΙΣΜΕΝΟ ΣΤΑ ΕΛΛΗΝΙΚΑ»
ΒΡΕΧΕΙ ΚΕΦΤΕΔΕΣ 1 (2009) - CLOUDY WITH A CHANCE OF MEATBALLS 1 «ΜΕΤΑΓΛΩΤΤΙΣΜΕΝΟ ΣΤΑ ΕΛΛΗΝΙΚΑ»



ΒΡΕΧΕΙ ΚΕΦΤΕΔΕΣ 1 (2009) - CLOUDY WITH A CHANCE OF MEATBALLS 1 «ΜΕΤΑΓΛΩΤΤΙΣΜΕΝΟ ΣΤΑ ΕΛΛΗΝΙΚΑ»


Έτος παραγωγής: 2009 (Ελλάδα σε DνD ΑΠΡ 2010).
Είδος ταινίας: Κινούμενα Σχέδια, Παιδικά.
Στούντιο Παραγωγής: Sony Pictures Animation.
Γλώσσα ομιλίας: Ελληνικά (Μεταγλωτισμένο).
Διάρκεια ταινίας: 1 ώρα & 26 λεπτά.
Σκηνοθεσία: Phil Lord, Chris Miller.
Ηθοποιοί (Μεταγλώτιση): Αργύρης Παυλίδης, Mαρία Zερβού, Mανώλης Γιούργος κ.α.
 
Ο Flint έχει ένα όνειρο. Να γίνει μεγάλος εφευρέτης. Κάθε του εφεύρεση είναι, είτε άχρηστη, είτε λειτουργεί, για λίγο. Στο νησί που κατοικεί, το μόνο φαγητό που υπάρχει είναι η σαρδέλα, σε οποιαδήποτε συνταγή. Θα του έρθει μια φαεινή ιδέα. Να φτιάξει μια μηχανή που θα μετατρέπει το νερό σε τροφή. Παρόλο που τα καταφέρνει η μηχανή καταλήγει στα σύννεφα. Κάθε φορά που στέλνει κάποια εντολή, η μηχανή με την βοήθεια των σύννεφων, στέλνει μια βροχή από παραγγελίες κάθε λιχουδιάς που της ζητείται. Ο δήμαρχος θέλει να προσελκύσει τουρίστες και του ζητά να 'βρέχει' γεύματα 4 φορές την ημέρα. Αλλά η λαιμαργία και η απληστία όλων υπερφορτώνει την μηχανή και φέρνει τον κίνδυνο 'ακραίων καιρικών φαινομένων' προ των πυλών...

Η ταινία είναι βασισμένη στο βιβλίο των Judi και Ron Barret που γράφτηκε πριν από περίπου 30 χρόνια. Το ότι πέρασε τόσος καιρός, αλλά και πάλι βρέθηκε κάποιος για να διηγηθεί ξανά αυτή την ιστορία μέσω της οθόνης, αποτελεί από μόνο του απόδειξη μιας διαχρονικής και διδακτικής αφήγησης που ενίοτε συγκινεί και άλλοτε διασκεδάζει το κοινό.

Τα 'θανάσιμα αμαρτήματα' της απληστίας και της λαιμαργίας αποτελούσαν ανέκαθεν αγαπημένο θέμα της λογοτεχνίας και αργότερα του κινηματογράφου. Με τον τρόπο που παρουσιάζεται εδώ, παρακολουθείται πιο ανάλαφρα και εγκαθίσταται περισσότερο στο υποσυνείδητό μας, καθώς δεν υπάρχουν περιθώρια κούρασης και αμφισβήτησης. Οι ξεκαρδιστικοί, κάποιες φορές, διάλογοι και οι όμορφες φατσούλες των ηρώων δημιουργούν μια ατμόσφαιρα ευχάριστη και διάφανη.

















General

Format                                   : AVI
Format/Info                              : Audio Video Interleave
File size                                : 1.07 GiB
Duration                                 : 1h 26mn
Overall bit rate                         : 1 775 Kbps

Video
ID                                       : 0
Format                                   : MPEG-4 Visual
Format profile                           : Advanced Simple@L5
Format settings, BVOP                    : 2
Format settings, QPel                    : No
Format settings, GMC                     : No warppoints
Format settings, Matrix                  : Default (H.263)
Codec ID                                 : XVID
Codec ID/Hint                            : XviD
Duration                                 : 1h 26mn
Bit rate                                 : 1 383 Kbps
Width                                    : 720 pixels
Height                                   : 304 pixels
Display aspect ratio                     : 2.35:1
Frame rate                               : 25.000 fps
Color space                              : YUV
Chroma subsampling                       : 4:2:0
Bit depth                                : 8 bits
Scan type                                : Progressive
Compression mode                         : Lossy
Bits/(Pixel*Frame)                       : 0.253
Stream size                              : 853 MiB (78%)
Writing library                          : XviD 1.2.1 (UTC 2008-12-04)

Audio

ID                                       : 1
Format                                   : AC-3
Format/Info                              : Audio Coding 3
Mode extension                           : CM (complete main)
Format settings, Endianness              : Big
Codec ID                                 : 2000
Duration                                 : 1h 26mn
Bit rate mode                            : Constant
Bit rate                                 : 384 Kbps
Channel(s)                               : 6 channels
Channel positions                        : Front: L C R, Side: L R, LFE
Sampling rate                            : 48.0 KHz
Bit depth                                : 16 bits
Compression mode                         : Lossy
Stream size                              : 237 MiB (22%)
Alignment                                : Aligned on interleaves
Interleave, duration                     : 64 ms (1.60 video frames)
Interleave, preload duration             : 192 ms







Available to users only


Κατηγορία: ΑΛΛΑ ΚΑΝΑΛΙΑ (ΔΙΑΦΟΡΑ) |
Only registered users can add comments.
[ Registration | Login ]

Σύνδεση / Εγγραφή

Login:
Password:

Φιλικές Σελίδες

Αναζήτηση Σελίδας

Αναζήτηση Μέσω Google

EZ Archive