ΧΡΙΣΤΟΥΓΕΝΝΙΑΤΙΚΗ ΜΠΑΛΑΝΤΑ «ΕΛΛΗΝΙΚΟΙ ΥΠΟΤΙΤΛΟΙ» - Scrooge 1970 DVDRip x264 AC3 5.1 «GREEK SUBS» - 5 January 2014 - Ελληνική Τηλεόραση | Διαδικτυακά Παιχνίδια & Κανάλια
Saturday - Σάββατο, 03 December - Δεκέμβριος 2016, 15:39
Καλωσόρισες Guest | RSS

EZAccess Ελληνική Τηλεόραση

Κεντρική Σελίδα » 2014 » January - Ιανουάριος » 5 » ΧΡΙΣΤΟΥΓΕΝΝΙΑΤΙΚΗ ΜΠΑΛΑΝΤΑ «ΕΛΛΗΝΙΚΟΙ ΥΠΟΤΙΤΛΟΙ» - Scrooge 1970 DVDRip x264 AC3 5.1 «GREEK SUBS»
ΧΡΙΣΤΟΥΓΕΝΝΙΑΤΙΚΗ ΜΠΑΛΑΝΤΑ «ΕΛΛΗΝΙΚΟΙ ΥΠΟΤΙΤΛΟΙ» - Scrooge 1970 DVDRip x264 AC3 5.1 «GREEK SUBS»


ΧΡΙΣΤΟΥΓΕΝΝΙΑΤΙΚΗ ΜΠΑΛΑΝΤΑ «ΕΛΛΗΝΙΚΟΙ ΥΠΟΤΙΤΛΟΙ» - Scrooge 1970 DVDRip x264 AC3 5.1 «GREEK SUBS»


ΕΛΛΗΝΙΚΟΣ ΤΙΤΛΟΣ: ΧΡΙΣΤΟΥΓΕΝΝΙΑΤΙΚΗ ΜΠΑΛΑΝΤΑ
ΕΙΔΟΣ: ΚΟΙΝΩΝΙΚΟ - ΜΙΟΥΖΙΚΑΛ
ΣΥΓΓΡΑΦΕΑΣ: Charles Dickens
ΣΕΝΑΡΙΟ: Leslie Bricusse
ΣΚΗΝΟΘΕΣΙΑ: Ronald Neame
ΜΟΥΣΙΚΗ: Leslie Bricusse
ΠΑΙΖΟΥΝ:
Albert Finney, Alec Guinness, Edith Evans, David Collings, Laurence Naismith,
Kenneth More, Suzanne Neve κ.ά.
ΕΤΟΣ ΚΥΚΛΟΦΟΡΙΑΣ: 1970
ΔΙΑΡΚΕΙΑ: 109 min
ΓΛΩΣΣΑ: Αγγλικά

ΥΠΟΘΕΣΗ
Το πνεύμα των Χριστουγέννων γίνεται μια μουσικό-χορευτική γιορτή της ζωής σ' αυτήν την εξαίρετη διασκευή του πολυαγαπημένου μυθιστορήματος του Τσαρλς Ντίκενς,"Α Christmas Carol".

O τσιγκούνης και δύστροπος Σκρουτζ ( Αλμπερτ Φίνεϊ) την παραμονή των Χριστουγέννων θα μάθει το φρικτό μέλλον που τον περιμένει αν συνεχίσει να φέρεται άσχημα και μίζερα στους συνανθρώπους του.
Το ένα μετά το άλλο τα Φαντάσματα των Χριστουγέννων του παρελθόντος, του παρόντος και του μέλλοντος ξεκινούν μαζί με τον έκπληκτο Σκρουτζ ένα απίστευτο ταξίδι μέσα στον χρόνο, δείχνοντας του σε μια μαγική νύχτα ότι άλλοι άνθρωποι χρειάζονται μια ολόκληρη ζωή για να μάθουν...




Format                           : Matroska
File size                        : 1.26 GiB
Duration                         : 1h 48mn
Overall bit rate                 : 1 660 Kbps

Video
ID                               : 1
Format                           : AVC
Format/Info                      : Advanced Video Codec
Format profile                   : High@L3.0
Format settings, CABAC           : Yes
Format settings, ReFrames        : 3 frames
Muxing mode                      : Container profile=Unknown@3.0
Codec ID                         : V_MPEG4/ISO/AVC
Duration                         : 1h 48mn
Bit rate                         : 1 179 Kbps
Nominal bit rate                 : 1 200 Kbps
Width                            : 720 pixels
Height                           : 304 pixels
Display aspect ratio             : 2.35:1
Frame rate                       : 25.000 fps
Resolution                       : 24 bits
Colorimetry                      : 4:2:0
Scan type                        : Progressive
Bits/(Pixel*Frame)               : 0.215
Stream size                      : 915 MiB (71%)
Writing library                  : x264 core 79




Audio
ID                               : 2
Format                           : AC-3
Format/Info                      : Audio Coding 3
Codec ID                         : A_AC3
Duration                         : 1h 48mn
Bit rate mode                    : Constant
Bit rate                         : 448 Kbps
Channel(s)                       : 6 channels
Channel positions                : Front: L C R, Surround: L R, LFE
Sampling rate                    : 48.0 KHz
Stream size                      : 348 MiB (27%)
Language                         : English

Text
ID                               : 3
Format                           : VobSub
Codec ID                         : S_VOBSUB
Codec ID/Info                    : The same subtitle format used on DVDs
Language                         : Greek
DVDrip-SUBrip: By Gandalf



Κατεβάστε εδώ:
xristougenniatikhmpalanta1970.rar.html

Κωδικός αποσυμπίεσης των αρχείων rar:
thelwseires

Κατηγορία: ΑΛΛΑ ΚΑΝΑΛΙΑ (ΔΙΑΦΟΡΑ) |
Only registered users can add comments.
[ Registration | Login ]

Σύνδεση / Εγγραφή

Login:
Password:

Φιλικές Σελίδες

Αναζήτηση Σελίδας

Αναζήτηση Μέσω Google

EZ Archive