Thursday - Πέμπτη, 27 July - Ιούλιος 2017, 18:34
Καλωσόρισες Guest | RSS

EZAccess Ελληνική Τηλεόραση

Κεντρική Σελίδα » 2014 » October - Οκτώβριος » 6 » COSMOS: A SPACETIME ODYSSEY HD «ΕΛΛΗΝΙΚΟΙ ΥΠΟΤΙΤΛΟΙ» - COSMOS: A Spacetime Odyssey (2014) Complete Season 1 720p HDTV X264 «GREEK SUBS»
COSMOS: A SPACETIME ODYSSEY HD «ΕΛΛΗΝΙΚΟΙ ΥΠΟΤΙΤΛΟΙ» - COSMOS: A Spacetime Odyssey (2014) Complete Season 1 720p HDTV X264 «GREEK SUBS»

COSMOS: A SPACETIME ODYSSEY ΣΕΖΟΝ 1 ΟΛΗΚΛΗΡΩΜΕΝΗ «ΕΛΛΗΝΙΚΟΙ ΥΠΟΤΙΤΛΟΙ» - COSMOS: A Spacetime Odyssey (2014) Complete Season 1 720p HDTV X264 «GREEK SUBS»

Περισσότερο από τρεις δεκαετίες μετά το ντεμπούτο του "Cosmos: A Personal Voyage" και την εικονική εξερεύνηση του σύμπαντος από τον Carl Sagan, το National Geographic Channel ξεκινά ένα νέο ταξίδι για τα αστέρια!  Στο "Cosmos: A Spacetime Odyssey", οι διεθνούς φήμης συνεργάτες του Sagan, η συγγραφέας/παραγωγός Ann Druyan και ο αστρονόμος Steven Soter - που έχουν ήδη συνεργαστεί με τεράστια επιτυχία με τον Seth MacFarlane (Family Guy), ενώνουν τις δυνάμεις τους για τη δημιουργία μιας σειράς 13 επεισοδίων σε συμπαραγωγή των National Geographic Channel και FOX.  Τη σειρά παρουσιάζει ο αστροφυσικός και συγγραφέας Neil deGrasse Tyson, ο οποίος μαζί με τηλεθεατές από όλο τον πλανήτη θα διερευνήσουν πώς ο άνθρωπος ανακάλυψε τους νόμους της φύσης και βρήκε τις συντεταγμένες του στο χώρο και το χρόνο. Θα φέρει στη επιφάνεια ανείπωτες μέχρι τώρα ιστορίες αναζήτησης της γνώσης και θα μεταφέρει τους θεατές σε νέους κόσμους, σε όλο το σύμπαν από την πιο μεγαλοπρεπή οπτική κλίμακα του κόσμου.  Στο "Cosmos: A Spacetime Odyssey" θα ανακαλύψουμε νέους τρόπους επιστημονικής αφήγησης που θα μας κάνουν να αποκαλύψουμε το μεγαλείο του σύμπαντος μέσα από μια πρωτόγνωρη και διαδραστική εμπειρία.




Format                                   : Matroska
Format version                           : Version 4 / Version 2
File size                                : 900 MiB
Duration                                 : 42mn 30s
Overall bit rate                         : 2 959 Kbps
Encoded date                             : UTC 2014-05-16 12:06:04
Writing application                      : mkvmerge v6.9.1 ('Blue Panther') 64bit built on Apr 18 2014 18:23:38
Writing library                          : libebml v1.3.0 + libmatroska v1.4.1

Video
ID                                       : 1
Format                                   : AVC
Format/Info                              : Advanced Video Codec
Format profile                           : High@L4.1
Format settings, CABAC                   : Yes
Format settings, ReFrames                : 8 frames
Codec ID                                 : V_MPEG4/ISO/AVC
Duration                                 : 42mn 30s
Bit rate                                 : 2 516 Kbps
Width                                    : 1 280 pixels
Height                                   : 720 pixels
Display aspect ratio                     : 16:9
Frame rate mode                          : Constant
Frame rate                               : 23.976 fps
Color space                              : YUV
Chroma subsampling                       : 4:2:0
Bit depth                                : 8 bits
Scan type                                : Progressive
Bits/(Pixel*Frame)                       : 0.114
Stream size                              : 765 MiB (85%)
Writing library                          : x264 core 142 r2409 d6b4e63
Language                                 : English
Default                                  : Yes
Forced                                   : No

Audio
ID                                       : 2
Format                                   : AC-3
Format/Info                              : Audio Coding 3
Mode extension                           : CM (complete main)
Format settings, Endianness              : Big
Codec ID                                 : A_AC3
Duration                                 : 42mn 30s
Bit rate mode                            : Constant
Bit rate                                 : 384 Kbps
Channel(s)                               : 6 channels
Channel positions                        : Front: L C R, Side: L R, LFE
Sampling rate                            : 48.0 KHz
Bit depth                                : 16 bits
Compression mode                         : Lossy
Stream size                              : 117 MiB (13%)
Default                                  : Yes
Forced                                   : No

--------------------------------
Κατεβάστε εδώ:

http://turbobit.net/eynzgqcutn8t/K0SM0SOD1S3IAS1EFTA20.part1.rar.html
http://turbobit.net/eibs89yrky6u/K0SM0SOD1S3IAS1EFTA20.part2.rar.html
http://turbobit.net/87za3p073obs/K0SM0SOD1S3IAS1EFTA20.part3.rar.html
http://turbobit.net/1r7fqd5azwug/K0SM0SOD1S3IAS1EFTA20.part4.rar.html
http://turbobit.net/blnlt6htdrzv/K0SM0SOD1S3IAS1EFTA20.part5.rar.html
http://turbobit.net/50svpd4v82k4/K0SM0SOD1S3IAS1EFTA20.part6.rar.html
http://turbobit.net/w5rv6rks8gp7/K0SM0SOD1S3IAS1EFTA20.part7.rar.html

Κωδικός αποσυμπίεσης των αρχείων rar:
thelwseires
--------------------------------

 

Κατηγορία: ΑΛΛΑ ΚΑΝΑΛΙΑ (ΝΤΟΚΙΜΑΝΤΕΡ) |
Only registered users can add comments.
[ Registration | Login ]

Σύνδεση / Εγγραφή

Login:
Password:

Φιλικές Σελίδες

Αναζήτηση Σελίδας

Αναζήτηση Μέσω Google

EZ Archive