ΕΛΕΥΘΕΡΩΣΤΕ ΤΟΝ ΓΟΥΪΛΙ (ΤΡΙΛΟΓΙΑ) - FREE WILLY TRILOGY (1993-1995-1997) «ΕΛΛΗΝΙΚΟΙ ΥΠΟΤΙΤΛΟΙ» - 11 November 2013 - Ελληνική Τηλεόραση | Διαδικτυακά Παιχνίδια & Κανάλια
Tuesday - Τρίτη, 06 December - Δεκέμβριος 2016, 21:47
Καλωσόρισες Guest | RSS

EZAccess Ελληνική Τηλεόραση

Κεντρική Σελίδα » 2013 » November - Νοέμβριος » 11 » ΕΛΕΥΘΕΡΩΣΤΕ ΤΟΝ ΓΟΥΪΛΙ (ΤΡΙΛΟΓΙΑ) - FREE WILLY TRILOGY (1993-1995-1997) «ΕΛΛΗΝΙΚΟΙ ΥΠΟΤΙΤΛΟΙ»
ΕΛΕΥΘΕΡΩΣΤΕ ΤΟΝ ΓΟΥΪΛΙ (ΤΡΙΛΟΓΙΑ) - FREE WILLY TRILOGY (1993-1995-1997) «ΕΛΛΗΝΙΚΟΙ ΥΠΟΤΙΤΛΟΙ»


ΕΛΕΥΘΕΡΩΣΤΕ ΤΟΝ ΓΟΥΙΛΙ (ΤΡΙΛΟΓΙΑ) - FREE WILLY TRILOGY (1993-1995-1997) «ΕΛΛΗΝΙΚΟΙ ΥΠΟΤΙΤΛΟΙ»

Η πιο διάσημη φάλαινα του κόσμου, ο «Γουίλι», που πρωταγωνίστησε στη συγκινητική ταινία του Χόλιγουντ «Ελευθερώστε το Γουίλι» (Free Willy), η οποία είχε και δύο ακόμα κινηματογραφικές συνέχειες, σ' ένα πακέτο για εσάς.



Free Willy 1 - Ελευθερώστε τον Γουίλι (1993)

Ο μικρός Τζέσε είναι ορφανός. Μαζί με τον φίλο του Πέρι διασκεδάζουν να ζωγραφίζουν με σπρέι οπουδήποτε τους αρέσει. Όμως μετά από ένα ακόμη γκράφιτι έξω από ένα θαλάσσιο πάρκο, τα δύο παιδιά συλλαμβάνονται από την αστυνομία. Ο Ντουάιτ, ο αστυνομικός που τους συνέλαβε, πιστεύοντας πως ο Τζέσε έχει ανάγκη από ένα σταθερό, οικογενειακό περιβάλλον, φροντίζει για την υιοθεσία του μικρού παιδιού από ένα ζευγάρι, τους Γκλεν και Αν Γκρίνγουντ. Από την αρχή ο Τζέσε συμπαθεί το νεαρό ζευγάρι που στέκεται στο πλάι του. Παράλληλα όμως, αναλαμβάνει να καθαρίσει το κτίριο του θαλάσσιου πάρκου από τις ζωγραφιές του. Η παραμονή του στο πάρκο αποτελεί την αιτία της γνωριμίας του με τον Γουίλι: μια δολοφόνο φάλαινα, που αποτελεί την βασική ατραξιόν. Όμως ο Γουίλι, που είχε χωριστεί βίαια από τη μητέρα του και αιχμαλωτιστεί από ψαράδες, δεν ανταποκρίνεται στο αληθινό ενδιαφέρον που του δείχνουν οι εκπαιδευτές του Ρέι και Ράντολφ.  Η γνωριμία του με τον Τζέσε θα είναι καταλυτική. Οι δυο τους θα γίνουν αχώριστοι φίλοι και σύντομα ο Γουίλι θα εξελιχθεί σε έναν χαρισματικό... performer! Όμως ο Ντάιαλ, ο ιδιοκτήτης του πάρκου, έχει διαφορετικά σχέδια για τον Γουίλι. Έχοντας ασφαλίσει τη νεαρή φάλαινα για 1.000.000 δολάρια, αναλογίζεται πως αξίζει περισσότερο νεκρή παρά ζωντανή. Είναι η στιγμή όπου ο Τζέσε, η Ρέι και ο Ράντολφ θα πρέπει να κάνουν ό,τι μπορούν για να σώσουν τον Γουίλι και να τον επιστρέψουν στο φυσικό του περιβάλλον...



Directed by Simon Wincer
Produced by Lauren Shuler Donner
Jennie Lew Tugend
Richard Donner
Arnon Milchan
Written by Keith A. Walker
Corey Blechman
Starring Jason James Richter
Lori Petty
Jayne Atkinson
August Schellenberg
Michael Madsen
Music by Basil Poledouris
Cinematography Robbie Greenberg
Editing by O. Nicholas Brown
Studio Le Studio Canal+
Regency Enterprises
Alcor Films
Distributed by Warner Bros. Family Entertainment
Release date(s) July 16, 1993
Running time 112 minutes
Country United States
Language English



Format : AVI
Format/Info : Audio Video Interleave
File size : 1.35 GiB
Duration : 1h 47mn
Overall bit rate mode : Variable
Overall bit rate : 1 809 Kbps
Writing application : VirtualDubMod 1.5.4.1 (build 2178/release)
Writing library : VirtualDubMod build 2178/release

Video
ID : 0
Format : MPEG-4 Visual
Format settings, BVOP : 1
Format settings, QPel : No
Format settings, GMC : No warppoints
Format settings, Matrix : Default (H.263)
Muxing mode : Packed bitstream
Codec ID : DX50
Codec ID/Hint : DivX 5
Duration : 1h 47mn
Bit rate : 1 549 Kbps
Width : 720 pixels
Height : 304 pixels
Display aspect ratio : 2.35:1
Frame rate : 25.000 fps
Color space : YUV
Chroma subsampling : 4:2:0
Bit depth : 8 bits
Scan type : Progressive
Compression mode : Lossy
Bits/(Pixel*Frame) : 0.283
Stream size : 1.16 GiB (86%)
Writing library : DivX 6.6.1



Audio
ID : 1
Format : MPEG Audio
Format version : Version 1
Format profile : Layer 3
Mode : Joint stereo
Codec ID : 55
Codec ID/Hint : MP3
Duration : 1h 47mn
Bit rate mode : Variable
Bit rate : 247 Kbps
Channel(s) : 2 channels
Sampling rate : 48.0 KHz
Compression mode : Lossy
Stream size : 189 MiB (14%)
Alignment : Aligned on interleaves
Interleave, duration : 24 ms (0.60 video frame)
Interleave, preload duration : 591 ms
Language : English



Free Willy 2: The Adventure Home - Ελευθερώστε τον Γουίλι 2: Παντοτινή Φιλία (1995)

 Για μια ακόμη φορά, ο Τζέσε θα πρέπει να προστατέψει την αγαπημένη του φάλαινα, καθώς η τελευταία και η οικογένεια της κινδυνεύουν από διαρροή πετρελαίου στην περιοχή που ζουν.



Directed by Dwight H. Little
Produced by Jennie Lew Tugend
Lauren Shuler Donner
Richard Donner
Arnon Milchan
Written by Karen Janszen
Corey Blechman
John Mattson
Starring Jason James Richter
August Schellenberg
Jayne Atkinson
Jon Tenney
Elizabeth Pena
Francis Capra
Michael Madsen
Music by Basil Poledouris
Cinematography Laszlo Kovacs
Editing by Robert Brown
Dallas Puett
Studio StudioCanal
Regency Enterprises
Alcor Films
Distributed by Warner Bros. Family Entertainment
Release date(s) July 19, 1995
Running time 95 min
Country United States
Language English



Format : AVI
Format/Info : Audio Video Interleave
File size : 1.29 GiB
Duration : 1h 33mn
Overall bit rate mode : Variable
Overall bit rate : 1 974 Kbps
Writing application : VirtualDubMod 1.5.4.1 (build 2178/release)
Writing library : VirtualDubMod build 2178/release

Video
ID : 0
Format : MPEG-4 Visual
Format settings, BVOP : 1
Format settings, QPel : No
Format settings, GMC : No warppoints
Format settings, Matrix : Default (H.263)
Muxing mode : Packed bitstream
Codec ID : DX50
Codec ID/Hint : DivX 5
Duration : 1h 33mn
Bit rate : 1 717 Kbps
Width : 720 pixels
Height : 304 pixels
Display aspect ratio : 2.35:1
Frame rate : 25.000 fps
Color space : YUV
Chroma subsampling : 4:2:0
Bit depth : 8 bits
Scan type : Progressive
Compression mode : Lossy
Bits/(Pixel*Frame) : 0.314
Stream size : 1.13 GiB (87%)
Writing library : DivX 6.6.1



Audio
ID : 1
Format : MPEG Audio
Format version : Version 1
Format profile : Layer 3
Mode : Joint stereo
Mode extension : MS Stereo
Codec ID : 55
Codec ID/Hint : MP3
Duration : 1h 33mn
Bit rate mode : Variable
Bit rate : 243 Kbps
Channel(s) : 2 channels
Sampling rate : 48.0 KHz
Compression mode : Lossy
Stream size : 163 MiB (12%)
Alignment : Aligned on interleaves
Interleave, duration : 24 ms (0.60 video frame)
Interleave, preload duration : 75 ms
Writing library : LAME3.97
Encoding settings : -m j -V 4 -q 2 -lowpass 19.7 --abr
Language : English



Free Willy 3: The Rescue - Ελευθερώστε τον Γουίλι 3: Η Διάσωση (1997)

 Ο Γουίλι η φάλαινα απειλείται από παράνομους φαλαινοθήρες που βγάζουν χρήματα από το σούσι. Καπετάνιος του πλοίου είναι ο Τζον Γουέσλεϊ, ενώ ο γιος του που επιβαίνει κι αυτός, ο Μαξ, είναι δυσαρεστημένος από τη δουλειά του πατέρα του, αλλά δεν το ομολογεί. Ο 18χρονος, πια, Τζέσι έχει πιάσει δουλειά σε ένα πλοίο έρευνας πάνω στις Όρκα, μαζί με το φίλο του Ράντολφ κι έναν σαρκαστικό επιστήμονα, τον Ντριού. Ο Τζέσι συναντιέται ξανά με τον Γουίλι και βοηθούν τον Μαξ να αντιληφθεί πως μια φάλαινα είναι κάτι περισσότερο από τροφή.



Directed by Sam Pillsbury
Produced by Jennie Lew Tugend
Richard Donner
Lauren Shuler Donner
Arnon Milchan
Written by John Mattson
Starring Jason James Richter
August Schellenberg
Annie Corley
Vincent Berry
Patrick Kilpatrick
Music by Cliff Eidelman
Theme
Basil Poledouris
Cinematography Tobias A. Schliessler
Editing by Margaret Goodspeed
Studio Regency Enterprises
Distributed by Warner Bros. Family Entertainment
Release date(s) August 8, 1997 (USA)
October 17, 1997 (UK)
September 25, 1997 (Australia)
Running time 86 minutes
Country United States
Language English



Format : AVI
Format/Info : Audio Video Interleave
File size : 1.10 GiB
Duration : 1h 22mn
Overall bit rate mode : Variable
Overall bit rate : 1 917 Kbps
Writing application : VirtualDubMod 1.5.4.1 (build 2178/release)
Writing library : VirtualDubMod build 2178/release

Video
ID : 0
Format : MPEG-4 Visual
Format settings, BVOP : 1
Format settings, QPel : No
Format settings, GMC : No warppoints
Format settings, Matrix : Default (H.263)
Muxing mode : Packed bitstream
Codec ID : DX50
Codec ID/Hint : DivX 5
Duration : 1h 22mn
Bit rate : 1 658 Kbps
Width : 720 pixels
Height : 416 pixels
Display aspect ratio : 1.731
Frame rate : 25.000 fps
Color space : YUV
Chroma subsampling : 4:2:0
Bit depth : 8 bits
Scan type : Progressive
Compression mode : Lossy
Bits/(Pixel*Frame) : 0.221
Stream size : 974 MiB (87%)
Writing library : DivX 6.6.1



Audio
ID : 1
Format : MPEG Audio
Format version : Version 1
Format profile : Layer 3
Mode : Joint stereo
Mode extension : MS Stereo
Codec ID : 55
Codec ID/Hint : MP3
Duration : 1h 22mn
Bit rate mode : Variable
Bit rate : 246 Kbps
Channel(s) : 2 channels
Sampling rate : 48.0 KHz
Compression mode : Lossy
Stream size : 144 MiB (13%)
Alignment : Aligned on interleaves
Interleave, duration : 24 ms (0.60 video frame)
Interleave, preload duration : 75 ms
Writing library : LAME3.97
Encoding settings : -m j -V 4 -q 2 -lowpass 19.7 --abr
Language : English

Κατεβάστε εδώ:
Available to users only
Κατηγορία: ΑΛΛΑ ΚΑΝΑΛΙΑ (ΔΙΑΦΟΡΑ) |
Only registered users can add comments.
[ Registration | Login ]

Σύνδεση / Εγγραφή

Login:
Password:

Φιλικές Σελίδες

Αναζήτηση Σελίδας

Αναζήτηση Μέσω Google

EZ Archive