ΕΝΤΖΙ ΜΠΕΝΤΖΙ Ο ΜΗΧΑΝΙΚΟΣ (26 ΕΠΕΙΣΟΔΙΑ) «ΜΕΤΑΓΛΩΤΤΙΣΜΕΝΟ ΣΤΑ ΕΛΛΗΝΙΚΑ» - 5 September 2013 - Ελληνική Τηλεόραση | Διαδικτυακά Παιχνίδια & Κανάλια
Friday - Παρασκευή, 09 December - Δεκέμβριος 2016, 19:21
Καλωσόρισες Guest | RSS

EZAccess Ελληνική Τηλεόραση

Κεντρική Σελίδα » 2013 » September - Σεπτέμβριος » 5 » ΕΝΤΖΙ ΜΠΕΝΤΖΙ Ο ΜΗΧΑΝΙΚΟΣ (26 ΕΠΕΙΣΟΔΙΑ) «ΜΕΤΑΓΛΩΤΤΙΣΜΕΝΟ ΣΤΑ ΕΛΛΗΝΙΚΑ»
ΕΝΤΖΙ ΜΠΕΝΤΖΙ Ο ΜΗΧΑΝΙΚΟΣ (26 ΕΠΕΙΣΟΔΙΑ) «ΜΕΤΑΓΛΩΤΤΙΣΜΕΝΟ ΣΤΑ ΕΛΛΗΝΙΚΑ»


ΕΝΤΖΙ ΜΠΕΝΤΖΙ Ο ΜΗΧΑΝΙΚΟΣ (26 ΕΠΕΙΣΟΔΙΑ) «ΜΕΤΑΓΛΩΤΤΙΣΜΕΝΟ ΣΤΑ ΕΛΛΗΝΙΚΑ»


Το συνεργείο του Έντζι Μπέντζι δε μοιάζει με κανένα άλλο. Είναι χαρούμενο, πολύχρωμο και συναρπαστικό, ακριβώς όπως είναι και όλες οι μηχανές που ζητούν τη βοήθεια του Έντζι. Γιατί ο Έντζι Μπέντζι είναι ταλαντούχος μηχανικός και δεν υπάρχει τίποτα στον κόσμο που δεν μπορεί να το φτιάξει.

Παρέα με το φορτηγό του και το σκύλο του, τους δύο πολύτιμους βοηθούς του στο συνεργείο, ο Έντζι Μπέντζι βοηθά όλα τα «άρρωστα» οχήματα και δίνει χαρά στους μικρούς τους ιδιοκτήτες.



General
Format                         : AVI
Format/Info                    : Audio Video Interleave
File size                      : 59.4 MiB
Duration                       : 8mn 53s
Overall bit rate               : 935 Kbps
Writing application            : VirtualDubMod 1.5.4.1 (build 2178/release)
Writing library                : VirtualDubMod build 2178/release

Video
ID                             : 0
Format                         : MPEG-4 Visual
Format profile                 : Advanced Simple@L5
Format settings, BVOP          : 1
Format settings, QPel          : No
Format settings, GMC           : No warppoints
Format settings, Matrix        : Custom
Codec ID                       : XVID
Codec ID/Hint                  : XviD
Duration                       : 8mn 53s
Bit rate                       : 799 Kbps
Width                          : 576 pixels
Height                         : 384 pixels
Display aspect ratio           : 3:2
Frame rate                     : 25.000 fps
Color space                    : YUV
Chroma subsampling             : 4:2:0
Bit depth                      : 8 bits
Scan type                      : Progressive
Compression mode               : Lossy
Bits/(Pixel*Frame)             : 0.145
Stream size                    : 50.8 MiB (86%)
Writing library                : XviD 1.2.0.dev47 (UTC 2006-11-01)

Audio
ID                             : 1
Format                         : MPEG Audio
Format version                 : Version 1
Format profile                 : Layer 3
Mode                           : Joint stereo
Codec ID                       : 55
Codec ID/Hint                  : MP3
Duration                       : 8mn 53s
Bit rate mode                  : Constant
Bit rate                       : 128 Kbps
Channel(s)                     : 2 channels
Sampling rate                  : 48.0 KHz
Compression mode               : Lossy
Stream size                    : 8.14 MiB (14%)
Alignment                      : Aligned on interleaves
Interleave, duration           : 80 ms (2.00 video frames)
Interleave, preload duration   : 504 ms
Writing library                : LAME3.97
Encoding settings              : -m j -V 4 -q 2 -lowpass 17 -b 128



Αρχείο
 Engie Benjy - Ice Fishing.avi
 Engie Benjy - Nightlight.avi
 Engie Benjy - Message for Bike.avi
 Engie Benjy - Snow Fun.avi
 Engie Benjy - Blooming Balloons.avi
 Engie Benjy - Gobstoppers.avi
 Engie Benjy - Panic at Sea.avi
 Engie Benjy - Astronaut Jollop.avi
 Engie Benjy - Silly Bus Mood.avi
 Engie Benjy - Plane Come Home.avi
 Engie Benjy - Jollop to the Rescue.avi
 Engie Benjy - Who's Been Landing on My Mountain.avi
 Engie Benjy - Check Up Day.avi
 Engie Benjy - Pete's New Plane.avi
 Engie Benjy - Sleepwalking.avi
 Engie Benjy - Dirty Windows.avi
 Engie Benjy - Painting Spaceship.avi
 Engie Benjy - Jollop Mixture.avi
 Engie Benjy - Bad Hand Day.avi
 Engie Benjy - New Shoes for Spaceship.avi
 Engie Benjy - Boat Takes a Trip.avi
 Engie Benjy - Job Swap.avi
 Engie Benjy - Buses Need Holidays Too.avi
 Engie Benjy - Jollop Alone.avi
 Engie Benjy - The Spot.avi
 Engie Benjy - Lift-off Day.avi
 Eisagwgh.avi

Κατεβάστε εδώ:

ENTZI-MPENTZI.rar

Κωδικός αποσυμπίεσης:
thelwseires
Κατηγορία: Greek TV (ALTER) |
Only registered users can add comments.
[ Registration | Login ]

Σύνδεση / Εγγραφή

Login:
Password:

Φιλικές Σελίδες

Αναζήτηση Σελίδας

Αναζήτηση Μέσω Google

EZ Archive