ΕΠΙΘΕΣΗ ΣΤΟΝ ΣΤΑΘΜΟ 13 / Ο ΣΤΑΘΜΟΣ 13 ΔΕΧΕΤΑΙ ΕΠΙΘΕΣΗ (1976) - Assault on Precinct 13 (ΕΛΛΗΝΙΚΟΙ ΥΠΟΤΙΤΛΟΙ) - 17 October 2013 - Ελληνική Τηλεόραση | Διαδικτυακά Παιχνίδια & Κανάλια
Sunday - Κυριακή, 11 December - Δεκέμβριος 2016, 06:02
Καλωσόρισες Guest | RSS

EZAccess Ελληνική Τηλεόραση

Κεντρική Σελίδα » 2013 » October - Οκτώβριος » 17 » ΕΠΙΘΕΣΗ ΣΤΟΝ ΣΤΑΘΜΟ 13 / Ο ΣΤΑΘΜΟΣ 13 ΔΕΧΕΤΑΙ ΕΠΙΘΕΣΗ (1976) - Assault on Precinct 13 (ΕΛΛΗΝΙΚΟΙ ΥΠΟΤΙΤΛΟΙ)
ΕΠΙΘΕΣΗ ΣΤΟΝ ΣΤΑΘΜΟ 13 / Ο ΣΤΑΘΜΟΣ 13 ΔΕΧΕΤΑΙ ΕΠΙΘΕΣΗ (1976) - Assault on Precinct 13 (ΕΛΛΗΝΙΚΟΙ ΥΠΟΤΙΤΛΟΙ)


ΕΠΙΘΕΣΗ ΣΤΟΝ ΣΤΑΘΜΟ 13 / Ο ΣΤΑΘΜΟΣ 13 ΔΕΧΕΤΑΙ ΕΠΙΘΕΣΗ (1976) - Assault on Precinct 13 (ΕΛΛΗΝΙΚΟΙ ΥΠΟΤΙΤΛΟΙ)


 ΕΙΔΟΣ: ΠΕΡΙΠΕΤΕΙΑ - ΘΡΙΛΕΡ
ΣΕΝΑΡΙΟ: John Carpenter
ΣΚΗΝΟΘΕΣΙΑ: John Carpenter
ΜΟΥΣΙΚΗ: John Carpenter
ΠΑΙΖΟΥΝ: Austin Stoker, Darwin Joston, Laurie Zimmer, Martin West, Tony Burton,
Charles Cyphers, Nancy Kyes, Peter Bruni κ.ά.
ΕΤΟΣ ΚΥΚΛΟΦΟΡΙΑΣ: 1976
ΔΙΑΡΚΕΙΑ: 91 min
ΓΛΩΣΣΑ: Αγγλικά

ΥΠΟΘΕΣΗ
Θρίλερ του Τζον Κάρπεντερ γυρισμένο το 1976, που ήταν εμπνευσμένο από τα γουέστερν «Ρίο Μπράβο» και «Ελντοράντο» του Χάουορντ Χοκς.
Στους τίτλους, ο John Carpenter, σαν film editor, αναφέρεται με το ψευδώνυμο John T. Chance, όνομα του John Wayne στην ταινία "Rio Bravo".

Ένας αστυνομικός αναλαμβάνει την πρώτη μέρα στην υπηρεσία του να επιβλέψει την μετακόμιση ενός αστυνομικού τμήματος.
Εντελώς τυχαία μια μεταγωγική αποστολή που συνοδεύει τρείς εγκληματίες, ανάμεσά τους και έναν θανατοποινήτη, καταλήγει να περάσει το βράδυ εκεί, ενώ μια οπλισμένη συμμορία πολιορκεί το τμήμα, καταδιώκοντας έναν άντρα που σκότωσε ένα μέλος της.
Οι δυο αστυνομικοί που έχουν απομείνει στον σταθμό την τελευταία μέρα της λειτουργίας του, προσπαθούν να σώσουν τους εαυτούς τους και να αντιμετωπίσουν την κατάσταση με τη βοήθεια των φυλακισμένων.






Format                         : Matroska
Format version                 : Version 2
File size                      : 1.05 GiB
Duration                       : 1h 30mn
Overall bit rate               : 1 653 Kbps
Writing application            : HandBrake 0.9.4

Video
ID                             : 1
Format                         : AVC
Format/Info                    : Advanced Video Codec
Format profile                 : High@L3.0
Format settings, CABAC         : Yes
Format settings, ReFrames      : 3 frames
Codec ID                       : V_MPEG4/ISO/AVC
Duration                       : 1h 30mn
Bit rate                       : 1 200 Kbps
Width                          : 720 pixels
Height                         : 304 pixels
Display aspect ratio           : 2.35:1
Frame rate mode                : Constant
Frame rate                     : 23.976 fps
Color space                    : YUV
Chroma subsampling             : 4:2:0
Bit depth                      : 8 bits
Scan type                      : Progressive
Bits/(Pixel*Frame)             : 0.229
Stream size                    : 762 MiB (71%)

Audio
ID                             : 2
Format                         : AC-3
Format/Info                    : Audio Coding 3
Mode extension                 : CM (complete main)
Format settings, Endianness    : Big
Codec ID                       : A_AC3
Duration                       : 1h 30mn
Bit rate mode                  : Constant
Bit rate                       : 448 Kbps
Channel(s)                     : 6 channels
Channel positions              : Front: L C R, Side: L R, LFE
Sampling rate                  : 48.0 KHz
Bit depth                      : 16 bits
Compression mode               : Lossy
Stream size                    : 291 MiB (27%)
Language                       : English
Default                        : Yes
Forced                         : No

Κατεβάστε εδώ:
EPI8ESH13.1976.rar

Κωδικός αποσυμπίεσης των αρχείων rar:
thelwseires

Κατηγορία: ΑΛΛΑ ΚΑΝΑΛΙΑ (ΔΙΑΦΟΡΑ) |
Only registered users can add comments.
[ Registration | Login ]

Σύνδεση / Εγγραφή

Login:
Password:

Φιλικές Σελίδες

Αναζήτηση Σελίδας

Αναζήτηση Μέσω Google

EZ Archive