ΕΠΙΘΕΩΡΗΤΗΣ ΠΟΝΤΙΚΗΣ - Η ΜΕΓΑΛΗ ΤΥΡΟΛΗΣΤΕΙΑ ΣΤΗΝ ΠΟΝΤΙΚΟΥΠΟΛΗ «ΜΕΤΑΓΛΩΤΤΙΣΜΕΝΟ ΣΤΑ ΕΛΛΗΝΙΚΑ» «GREEK AUDIO» - 9 December 2013 - Ελληνική Τηλεόραση | Διαδικτυακά Παιχνίδια & Κανάλια
Friday - Παρασκευή, 09 December - Δεκέμβριος 2016, 21:14
Καλωσόρισες Guest | RSS

EZAccess Ελληνική Τηλεόραση

Κεντρική Σελίδα » 2013 » December - Δεκέμβριος » 9 » ΕΠΙΘΕΩΡΗΤΗΣ ΠΟΝΤΙΚΗΣ - Η ΜΕΓΑΛΗ ΤΥΡΟΛΗΣΤΕΙΑ ΣΤΗΝ ΠΟΝΤΙΚΟΥΠΟΛΗ «ΜΕΤΑΓΛΩΤΤΙΣΜΕΝΟ ΣΤΑ ΕΛΛΗΝΙΚΑ» «GREEK AUDIO»
ΕΠΙΘΕΩΡΗΤΗΣ ΠΟΝΤΙΚΗΣ - Η ΜΕΓΑΛΗ ΤΥΡΟΛΗΣΤΕΙΑ ΣΤΗΝ ΠΟΝΤΙΚΟΥΠΟΛΗ «ΜΕΤΑΓΛΩΤΤΙΣΜΕΝΟ ΣΤΑ ΕΛΛΗΝΙΚΑ» «GREEK AUDIO»
ΕΠΙΘΕΩΡΗΤΗΣ ΠΟΝΤΙΚΗΣ - Η ΜΕΓΑΛΗ ΤΥΡΟΛΗΣΤΕΙΑ ΣΤΗΝ ΠΟΝΤΙΚΟΥΠΟΛΗ «ΜΕΤΑΓΛΩΤΤΙΣΜΕΝΟ ΣΤΑ ΕΛΛΗΝΙΚΑ» «GREEK AUDIO»

ΕΠΙΘΕΩΡΗΤΗΣ ΠΟΝΤΙΚΗΣ - Η ΜΕΓΑΛΗ ΤΥΡΟΛΗΣΤΕΙΑ ΣΤΗΝ ΠΟΝΤΙΚΟΥΠΟΛΗ «ΜΕΤΑΓΛΩΤΤΙΣΜΕΝΟ ΣΤΑ ΕΛΛΗΝΙΚΑ» «GREEK AUDIO»


ΥΠΟΘΕΣΗ
ΕΠΙΘΕΩΡΗΤΗΣ ΠΟΝΤΙΚΗΣ - Η ΜΕΓΑΛΗ ΤΥΡΟΛΗΣΤΕΙΑ ΣΤΗΝ ΠΟΝΤΙΚΟΥΠΟΛΗ «ΜΕΤΑΓΛΩΤΤΙΣΜΕΝΟ ΣΤΑ ΕΛΛΗΝΙΚΑ» «GREEK AUDIO»

Format : AVI
Format/Info : Audio Video Interleave
File size : 230 MiB
Duration : 24mn 44s
Overall bit rate : 1 302 Kbps
Writing application : MEncoder SVN-r30881(20100311-gcc4.3.3)
Writing library : MPlayer

Video
ID : 0
Format : MPEG-4 Visual
Format profile : Advanced Simple@L5
Format settings, BVOP : 2
Format settings, QPel : No
Format settings, GMC : No warppoints
Format settings, Matrix : Default (H.263)
Codec ID : XVID
Codec ID/Hint : XviD
Duration : 24mn 44s
Bit rate : 1 161 Kbps
Width : 352 pixels
Height : 288 pixels
Display aspect ratio : 1.222
Original display aspect ratio : 4:3
Frame rate : 25.000 fps
Standard : PAL
Color space : YUV
Chroma subsampling : 4:2:0
Bit depth : 8 bits
Scan type : Progressive
Compression mode : Lossy
Bits/(Pixel*Frame) : 0.458
Stream size : 206 MiB (89%)
Writing library : XviD 1.2.1 (UTC 2008-12-04)

Audio
ID : 1
Format : MPEG Audio
Format version : Version 1
Format profile : Layer 3
Mode : Joint stereo
Mode extension : MS Stereo
Codec ID : 55
Codec ID/Hint : MP3
Duration : 24mn 44s
Bit rate mode : Constant
Bit rate : 128 Kbps
Channel(s) : 2 channels
Sampling rate : 44.1 KHz
Compression mode : Lossy
Delay relative to video : 40ms
Stream size : 22.7 MiB (10%)
Alignment : Aligned on interleaves
Interleave, duration : 26 ms (0.65 video frame)
Interleave, preload duration : 522 ms
Writing library : LAME3.98

ΕΠΙΘΕΩΡΗΤΗΣ ΠΟΝΤΙΚΗΣ - Η ΜΕΓΑΛΗ ΤΥΡΟΛΗΣΤΕΙΑ ΣΤΗΝ ΠΟΝΤΙΚΟΥΠΟΛΗ «ΜΕΤΑΓΛΩΤΤΙΣΜΕΝΟ ΣΤΑ ΕΛΛΗΝΙΚΑ» «GREEK AUDIO»

Κατεβάστε εδώ:
pontikhs1-turolhsteia.avi.html
Κατηγορία: ΑΛΛΑ ΚΑΝΑΛΙΑ (ΔΙΑΦΟΡΑ) |
Only registered users can add comments.
[ Registration | Login ]

Σύνδεση / Εγγραφή

Login:
Password:

Φιλικές Σελίδες

Αναζήτηση Σελίδας

Αναζήτηση Μέσω Google

EZ Archive