ΦΛΙΠΕΡ ΚΑΙ ΛΟΠΑΚΑ: Η ΞΗΡΑΣΙΑ - FLIPPER & LOPAKA: THE DROUGHT «ΜΕΤΑΓΛΩΤΤΙΣΜΕΝΟ ΣΤΑ ΕΛΛΗΝΙΚΑ» - 17 September 2013 - Ελληνική Τηλεόραση | Διαδικτυακά Παιχνίδια & Κανάλια
Saturday - Σάββατο, 03 December - Δεκέμβριος 2016, 15:39
Καλωσόρισες Guest | RSS

EZAccess Ελληνική Τηλεόραση

Κεντρική Σελίδα » 2013 » September - Σεπτέμβριος » 17 » ΦΛΙΠΕΡ ΚΑΙ ΛΟΠΑΚΑ: Η ΞΗΡΑΣΙΑ - FLIPPER & LOPAKA: THE DROUGHT «ΜΕΤΑΓΛΩΤΤΙΣΜΕΝΟ ΣΤΑ ΕΛΛΗΝΙΚΑ»
ΦΛΙΠΕΡ ΚΑΙ ΛΟΠΑΚΑ: Η ΞΗΡΑΣΙΑ - FLIPPER & LOPAKA: THE DROUGHT «ΜΕΤΑΓΛΩΤΤΙΣΜΕΝΟ ΣΤΑ ΕΛΛΗΝΙΚΑ»


ΦΛΙΠΕΡ ΚΑΙ ΛΟΠΑΚΑ: Η ΞΗΡΑΣΙΑ - FLIPPER & LOPAKA: THE DROUGHT «ΜΕΤΑΓΛΩΤΤΙΣΜΕΝΟ ΣΤΑ ΕΛΛΗΝΙΚΑ»


Βασησμένο στο παγκοσμίως γνωστό δελφίνι, αστέρι της ζωντανής
τηλεοπτικής σειράς δράσης για 30 χρόνια και τρειων ζωντανής δράσης
ταινίες, το Flipper & Lopaka η σειρά κινουμένων σχεδίων
ανοίγει έναν ολόκληρο νέο κόσμο του βυθού. Υπάρχουν νέες φιλίες,
νέες αντιπαλότητες και νέες συναρπαστικές περιπέτειες,
τόσο πάνω όσο και κάτω από τα κύματα. σε ενα όμορφο και εξωτικο νησί
της Νότιας Θάλασσας, ο Flipper γίνεται φίλος με ένα νεαρό αγόρι
που ονομάζεται Lopaka όταν τον σώζει από πνιγμό. Μαζί,
ο Flipper και ο Lopaka συνδυάζουν της δυναμεις τους για να νικήσουν
το κακό γιαγαντιο χταπόδι, τον Dexter.

ΠΕΡΙΓΡΑΦΗ ΕΠΕΙΣΩΔΙΟΥ:
Η ζεστη ειναι ανυποφορη στο νησι και τα αποθεματα του νερου τελειωνουν.
ο πατερας του Λοπακα σκαβει για να βρει νερο αλλα φενεται οτι
και οι υπογειες λιμνες εχουν στερεψει. Η μονη ελπιδα ειναι τα "παγωμενα
νησια" που εχει δει και ξερει οτι υπαρχουν βορεια απο το νησι ασχετα
του τι λενε οι αλλοι κατοικοι του νησιου που τον κοροιδευουν πιστευοντας
οτι τα ειχε ονειρευτει. ο Λοπακα παει να ρωτησει για αυτα την σοφη χελωνα
και οταν μαζι με τον Φλιπερ μαθαινουν για την υπαρξη τους ξεγελανε τον
Ντεξτερ για να τον κανουν να φερει ενα παγοβουνο στο νησι.

Κατηγορία: Animation
Σκηνοθεσία: Yoran Gross
Πρωταγωνιστές (Με τις φωνές των): Keith Scott, Jamie Oxenbould,
Robyn Moore
Χρονολογία: 1999
Διάρκεια: 24 λεπτά
Γλώσσα: Ελληνικά



Format                           : AVI
Format/Info                      : Audio Video Interleave
File size                        : 257 MiB
Duration                         : 24mn 8s
Overall bit rate                 : 1 490 Kbps
Writing application              : Lavf52.17.0

ΒΙΝΤΕΟ

ID                               : 0
Format                           : MPEG-4 Visual
Format profile                   : Simple@L3
Format settings, BVOP            : No
Format settings, QPel            : No
Format settings, GMC             : No warppoints
Format settings, Matrix          : Default (H.263)
Codec ID                         : XVID
Codec ID/Hint                    : XviD
Duration                         : 24mn 8s
Bit rate                         : 1 031 Kbps
Width                            : 480 pixels
Height                           : 368 pixels
Display aspect ratio             : 4:3
Frame rate                       : 25.000 fps
Color space                      : YUV
Chroma subsampling               : 4:2:0
Bit depth                        : 8 bits
Scan type                        : Progressive
Compression mode                 : Lossy
Bits/(Pixel*Frame)               : 0.233
Stream size                      : 178 MiB (69%)
Writing library                  : XviD 1.1.2 (UTC 2006-11-01)

ΗΧΟΣ

ID                               : 1
Format                           : AC-3
Format/Info                      : Audio Coding 3
Mode extension                   : CM (complete main)
Codec ID                         : 2000
Duration                         : 24mn 8s
Bit rate mode                    : Constant
Bit rate                         : 448 Kbps
Channel(s)                       : 2 channels
Channel positions                : Front: L R
Sampling rate                    : 48.0 KHz
Bit depth                        : 16 bits
Compression mode                 : Lossy
Stream size                      : 77.4 MiB (30%)
Alignment                        : Aligned on interleaves
Interleave, duration             : 32 ms (0.80 video frame)

Κατεβάστε εδώ:

FLIPER-LOPAKA.TO.REYMA.avi

Κατηγορία: ΑΛΛΑ ΚΑΝΑΛΙΑ (ΔΙΑΦΟΡΑ) |
Only registered users can add comments.
[ Registration | Login ]

Σύνδεση / Εγγραφή

Login:
Password:

Φιλικές Σελίδες

Αναζήτηση Σελίδας

Αναζήτηση Μέσω Google

EZ Archive