(Γ)ΛΥΚΑΚΙΑ 2 - Alpha and Omega 2: A Howl-iday Adventure (2013) «ΕΝΣΩΜΑΤΩΜΕΝΟΙ ΕΛΛΗΝΙΚΟΙ ΥΠΟΤΙΤΛΟΙ» - 17 October 2013 - Ελληνική Τηλεόραση | Διαδικτυακά Παιχνίδια & Κανάλια
Sunday - Κυριακή, 11 December - Δεκέμβριος 2016, 06:04
Καλωσόρισες Guest | RSS

EZAccess Ελληνική Τηλεόραση

Κεντρική Σελίδα » 2013 » October - Οκτώβριος » 17 » (Γ)ΛΥΚΑΚΙΑ 2 - Alpha and Omega 2: A Howl-iday Adventure (2013) «ΕΝΣΩΜΑΤΩΜΕΝΟΙ ΕΛΛΗΝΙΚΟΙ ΥΠΟΤΙΤΛΟΙ»
(Γ)ΛΥΚΑΚΙΑ 2 - Alpha and Omega 2: A Howl-iday Adventure (2013) «ΕΝΣΩΜΑΤΩΜΕΝΟΙ ΕΛΛΗΝΙΚΟΙ ΥΠΟΤΙΤΛΟΙ»


ΓΛΥΚΑΚΙΑ 2 - Alpha and Omega 2: A Howl-iday Adventure (2013) «ΕΝΣΩΜΑΤΩΜΕΝΟΙ ΕΛΛΗΝΙΚΟΙ ΥΠΟΤΙΤΛΟΙ»

Σκηνοθεσία: Richard Rich, Anthony Bell
Σενάριο: Ben Gluck, Steve Moore
Πρωταγωνιστούν: Ben Diskin, Kate Higgins, Lindsay Torrance, Bill Lader
Χώρα:USA
Έτος παραγωγής: 2013
Κατηγορία: Animation | Adventure

Η Κέιτ ο Χάμφρι και τα τρία κουτάβια τους (ο Στίνκυ, η Κοντέτ και ο Ραντ) χαρούμενοι ετοιμάζονται να γιορτάσουν τα πρώτα τους Χριστούγεννα, όταν το μικρότερο κουτάβι τους ο Ραντ μυστηριωδώς εξαφανίζεται. Τώρα πρέπει να πάνε σε ένα νέο ταξίδι μέσα από τη αγριότητα για να βρουν και να φέρουν πίσω τον Ραντ, προτού ο χειμώνας τους κλείσει το δρόμο της επιστροφής σπίτι τους. Είναι η μεγαλύτερη περιπέτεια τους,γεμάτη δράση και αγωνία,καθώς και με άφθονο χιούμορ και συγκινητικές στιγμές. Ενώ η περιπέτεια τους δεν τελειώνει όπως είχε προγραμματιστεί, η Κέιτ και ο Χάμφρι ανακαλύπτουν πως το σπίτι είναι όπου είναι η οικογένεια...







Format                                   : AVI

Format/Info                              : Audio Video Interleave

File size                                : 699 MiB

Duration                                 : 45mn 7s

Overall bit rate                         : 2 166 Kbps

Writing application                      : VirtualDubMod 1.5.10.2 (build 2542/release)

Writing library                          : VirtualDubMod build 2542/release



Video

ID                                       : 0

Format                                   : MPEG-4 Visual

Format profile                           : Advanced Simple@L5

Format settings, BVOP                    : 1

Format settings, QPel                    : No

Format settings, GMC                     : No warppoints

Format settings, Matrix                  : Default (H.263)

Muxing mode                              : Packed bitstream

Codec ID                                 : XVID

Codec ID/Hint                            : XviD

Duration                                 : 45mn 7s

Bit rate                                 : 2 029 Kbps

Width                                    : 640 pixels

Height                                   : 352 pixels

Display aspect ratio                     : 16:9

Frame rate                               : 23.976 fps

Color space                              : YUV

Chroma subsampling                       : 4:2:0

Bit depth                                : 8 bits

Scan type                                : Progressive

Compression mode                         : Lossy

Bits/(Pixel*Frame)                       : 0.376

Stream size                              : 655 MiB (94%)

Writing library                          : XviD 1.2.1 (UTC 2008-12-04)



Audio

ID                                       : 1

Format                                   : MPEG Audio

Format version                           : Version 1

Format profile                           : Layer 3

Mode                                     : Joint stereo

Mode extension                           : MS Stereo

Codec ID                                 : 55

Codec ID/Hint                            : MP3

Duration                                 : 45mn 7s

Bit rate mode                            : Constant

Bit rate                                 : 128 Kbps

Channel(s)                               : 2 channels

Sampling rate                            : 44.1 KHz

Compression mode                         : Lossy

Stream size                              : 41.3 MiB (6%)

Alignment                                : Split accross interleaves

Interleave, duration                     : 42 ms (1.00 video frame)

Interleave, preload duration             : 500 ms

Writing library                          : LAME3.99r

Encoding settings                        : -m j -V 4 -q 2 -lowpass 17 -b 128

Κατεβάστε εδώ:
Available to users only
Κατηγορία: ΑΛΛΑ ΚΑΝΑΛΙΑ (ΔΙΑΦΟΡΑ) |
Only registered users can add comments.
[ Registration | Login ]

Σύνδεση / Εγγραφή

Login:
Password:

Φιλικές Σελίδες

Αναζήτηση Σελίδας

Αναζήτηση Μέσω Google

EZ Archive