GHOSTBUSTERS (3 ΕΠΕΙΣΟΔΙΑ) «ΜΕΤΑΓΛΩΤΤΙΣΜΕΝΟ ΣΤΑ ΕΛΛΗΝΙΚΑ» - 26 August 2013 - Ελληνική Τηλεόραση | Διαδικτυακά Παιχνίδια & Κανάλια
Monday - Δευτέρα, 05 December - Δεκέμβριος 2016, 00:19
Καλωσόρισες Guest | RSS

EZAccess Ελληνική Τηλεόραση

Κεντρική Σελίδα » 2013 » August - Αύγουστος » 26 » GHOSTBUSTERS (3 ΕΠΕΙΣΟΔΙΑ) «ΜΕΤΑΓΛΩΤΤΙΣΜΕΝΟ ΣΤΑ ΕΛΛΗΝΙΚΑ»
GHOSTBUSTERS (3 ΕΠΕΙΣΟΔΙΑ) «ΜΕΤΑΓΛΩΤΤΙΣΜΕΝΟ ΣΤΑ ΕΛΛΗΝΙΚΑ»


GHOSTBUSTERS (3 ΕΠΕΙΣΟΔΙΑ) «ΜΕΤΑΓΛΩΤΤΙΣΜΕΝΟ ΣΤΑ ΕΛΛΗΝΙΚΑ»


3 Επεισόδια των Ghostbusters ... και κάθε φάντασμα στην θέση του!

Σκηνοθέτης: Marc Richards
Ηθοποιοί: Peter Cullen, Pat Fraley, Lou Scheimer



General
Format                           : AVI
Format/Info                      : Audio Video Interleave
File size                        : 518 MiB
Duration                         : 1h 1mn
Overall bit rate                 : 1 181 Kbps

Video
ID                               : 0
Format                           : MPEG-4 Visual
Format profile                   : Advanced Simple@L5
Format settings, BVOP            : 2
Format settings, QPel            : No
Format settings, GMC             : No warppoints
Format settings, Matrix          : Default (H.263)
Muxing mode                      : Packed bitstream
Codec ID                         : XVID
Codec ID/Hint                    : XviD
Duration                         : 1h 1mn
Bit rate                         : 979 Kbps
Width                            : 720 pixels
Height                           : 576 pixels
Display aspect ratio             : 5:4
Frame rate                       : 25.000 fps
Standard                         : PAL
Color space                      : YUV
Chroma subsampling               : 4:2:0
Bit depth                        : 8 bits
Scan type                        : Progressive
Compression mode                 : Lossy
Bits/(Pixel*Frame)               : 0.094
Stream size                      : 430 MiB (83%)
Writing library                  : XviD 1.2.0SMP ( UTC 2006-01-08 )

Audio
ID                               : 1
Format                           : MPEG Audio
Format version                   : Version 1
Format profile                   : Layer 3
Codec ID                         : 55
Codec ID/Hint                    : MP3
Duration                         : 1h 1mn
Bit rate mode                    : Constant
Bit rate                         : 192 Kbps
Channel(s)                       : 2 channels
Sampling rate                    : 44.1 KHz
Compression mode                 : Lossy
Delay relative to video          : 26ms
Stream size                      : 84.2 MiB (16%)
Alignment                        : Split accross interleaves
Interleave, duration             : 40 ms (1.00 video frame)
Title                            : Audio Stream

Κατεβάστε εδώ:

fantasmokunhgoi.avi

Κατηγορία: ΑΛΛΑ ΚΑΝΑΛΙΑ (ΔΙΑΦΟΡΑ) |
Only registered users can add comments.
[ Registration | Login ]

Σύνδεση / Εγγραφή

Login:
Password:

Φιλικές Σελίδες

Αναζήτηση Σελίδας

Αναζήτηση Μέσω Google

EZ Archive