ΓΚΟΣΤΜΠΑΣΤΕΡΣ - GHOSTBUSTERS (1986) «ΜΕΤΑΓΛΩΤΤΙΣΜΕΝΟ ΣΤΑ ΕΛΛΗΝΙΚΑ» - 28 October 2013 - Ελληνική Τηλεόραση | Διαδικτυακά Παιχνίδια & Κανάλια
Sunday - Κυριακή, 11 December - Δεκέμβριος 2016, 09:54
Καλωσόρισες Guest | RSS

EZAccess Ελληνική Τηλεόραση

Κεντρική Σελίδα » 2013 » October - Οκτώβριος » 28 » ΓΚΟΣΤΜΠΑΣΤΕΡΣ - GHOSTBUSTERS (1986) «ΜΕΤΑΓΛΩΤΤΙΣΜΕΝΟ ΣΤΑ ΕΛΛΗΝΙΚΑ»
ΓΚΟΣΤΜΠΑΣΤΕΡΣ - GHOSTBUSTERS (1986) «ΜΕΤΑΓΛΩΤΤΙΣΜΕΝΟ ΣΤΑ ΕΛΛΗΝΙΚΑ»


ΓΚΟΣΤΜΠΑΣΤΕΡΣ - GHOSTBUSTERS (1986) «ΜΕΤΑΓΛΩΤΤΙΣΜΕΝΟ ΣΤΑ ΕΛΛΗΝΙΚΑ»


Είναι οι γνωστοί κυνηγοί φαντασμάτων (Ghostbusters) της Filmation , Ο Έντι, ο Τζεϊκ και ο γορίλας Τρέτση.

Στην κασσέτα αυτή, υπάρχουν 3 επεισόδια μεταγλωττισμένα.

Επεισόδια:

1.Εξοντώστε τη Νεραϊδα
2.Το στέμμα του Πρίγκηπα Όττις
3.Το φάντασμα του γορίλα



Format                           : AVI

Format/Info                      : Audio Video Interleave

File size                        : 394 MiB

Duration                         : 1h 1mn

Overall bit rate                 : 900 Kbps

Writing application              : MEncoder Sherpya-SVN-r32492-4.2.5

Writing library                  : VirtualDub build 32817/release



Video

ID                               : 0

Format                           : MPEG-4 Visual

Format profile                   : Simple@L3

Format settings, BVOP            : No

Format settings, QPel            : No

Format settings, GMC             : No warppoints

Format settings, Matrix          : Default (H.263)

Codec ID                         : XVID

Codec ID/Hint                    : XviD

Duration                         : 1h 1mn

Bit rate                         : 768 Kbps

Width                            : 512 pixels

Height                           : 384 pixels

Display aspect ratio             : 4:3

Frame rate                       : 25.000 fps

Color space                      : YUV

Chroma subsampling               : 4:2:0

Bit depth                        : 8 bits

Scan type                        : Progressive

Compression mode                 : Lossy

Bits/(Pixel*Frame)               : 0.156

Stream size                      : 337 MiB (85%)

Writing library                  : XviD 1.2.1 (UTC 2008-12-04)



Audio

ID                               : 1

Format                           : MPEG Audio

Format version                   : Version 1

Format profile                   : Layer 3

Mode                             : Joint stereo

Mode extension                   : MS Stereo

Codec ID                         : 55

Codec ID/Hint                    : MP3

Duration                         : 1h 1mn

Bit rate mode                    : Variable

Bit rate                         : 119 Kbps

Channel(s)                       : 2 channels

Sampling rate                    : 44.1 KHz

Compression mode                 : Lossy

Stream size                      : 52.2 MiB (13%)

Alignment                        : Aligned on interleaves

Interleave, duration             : 26 ms (0.65 video frame)

Interleave, preload duration     : 541 ms

Κατεβάστε εδώ:
Available to users only
Κατηγορία: ΑΛΛΑ ΚΑΝΑΛΙΑ (ΔΙΑΦΟΡΑ) |
Only registered users can add comments.
[ Registration | Login ]

Σύνδεση / Εγγραφή

Login:
Password:

Φιλικές Σελίδες

Αναζήτηση Σελίδας

Αναζήτηση Μέσω Google

EZ Archive