GREEK DIVER: ΝΑΥΑΓΙΟ ΜΑΡΙΑΝΝΑ (DVD) - Greek Diver Magazine - Dive in Naxos - 4 April 2014 - Ελληνική Τηλεόραση | Διαδικτυακά Παιχνίδια & Κανάλια
Tuesday - Τρίτη, 06 December - Δεκέμβριος 2016, 21:48
Καλωσόρισες Guest | RSS

EZAccess Ελληνική Τηλεόραση

Κεντρική Σελίδα » 2014 » April - Απρίλιος » 4 » GREEK DIVER: ΝΑΥΑΓΙΟ ΜΑΡΙΑΝΝΑ (DVD) - Greek Diver Magazine - Dive in Naxos
GREEK DIVER: ΝΑΥΑΓΙΟ ΜΑΡΙΑΝΝΑ (DVD) - Greek Diver Magazine - Dive in Naxos


GREEK DIVER: ΝΑΥΑΓΙΟ ΜΑΡΙΑΝΝΑ (DVD) - Greek Diver Magazine - Dive in Naxos

 Ένα από τα ομορφότερα ναυάγια πλοίων της χώρας μας, στέκεται στην μέση του διάπλου μεταξύ Νάξου και Πάρου προσφέροντας την ευκαιρία για μια αξέχαστη κατάδυση.
 Κατασκευασμένο σε Ολλανδικά ναυπηγεία το 1961 αγοράστηκε το 1980 από Έλληνες εφοπλιστές και μετονομάστηκε σε "Μαριάννα". Φορτηγό πλοίο μήκους 91 μέτρων και πλάτους 15 μέτρων.
Στις 24 Ιουλίου 1981 το "Μαριάννα" απέπλευσε από Ερυθρά θάλασσα προς Πειραιά φορτωμένο εμπορεύματα. Στο στενό μεταξύ Πάρου και Νάξου προσέκρουσε στον ύφαλο που ονομάζεται Αμαρας, όπου και παρέμεινε μισοβυθισμένο με την πλώρη έξω από το νερό.
Για αρκετό καιρό παρέμεινε σε αυτήν την κατάσταση, μέχρι που αποφασίστηκε η ολική του βύθιση με ελεγχόμενη έκρηξη της πλώρης για την ασφάλεια της ναυσιπλοΐας.
Το βαθύτερο σημείο βρίσκεται στα 24 μέτρα και είναι το σημείο της πρύμνης που ακουμπά στον βυθό με το εντυπωσιακό πέρασμα από το πηδάλιο του πλοίου και την απουσία της προπέλας του.
Το ρηχότερο σημείο είναι ο γερανός του πλοίου που βρίσκεται περίπου μισό μέτρο πάνωαπό την επιφάνεια της θάλασσας, απ' όπου συνήθως οι αυτοδύτες ξεκινούν την κάθοδο τους προς το βυθό.
Το πλοίο αποτελεί πλέον έναν τεχνητό ύφαλο συνέχεια του φυσικού που υπάρχει εκεί και έχει καλυφτεί όλο από θαλάσσιους οργανισμούς. Κοπάδια από μαγιάτικα κάνουν συχνές επισκέψεις, ενώ δεν αποκλείεται η συνάντηση με
λούτσους οι οποίοι περιφέρονται γύρω από το πλοίο. Μόνιμοι κάτοικοι του οι τεράστιοι σκάροι, οι σαργοί, πληθώρα γυμνοβραγχιων με εντυπωσιακούς χρωματισμούς, ενώ εντυπωσιακές είναι οι εικόνες από το εσωτερικό του ναυαγίου με τα φωτισμένα μπλε από το εξωτερικό φυσικό φως φινιστρίνια που μπορεί ο αυτοδύτης να τις απολαύσει απλά κοιτώντας από τις πόρτες που είναι ορθάνοιχτες.
Εκπληκτικά και τα περάσματα από τους πλαϊνούς διαδρόμους του πλοίου, κάνοντας τον επισκέπτη να αισθάνεται σαν να ταξιδεύει με το πλοίο, αγναντεύοντας το απέραντο γαλάζιο.
Όρθια και επιβλητική η γέφυρα του πλοίου, προσελκύει το μάτι του υποβρύχιου επισκέπτη και πυροδοτεί τα φλας των φωτογράφων για λήψεις με φόντο την επιφάνεια. Εντυπωσιακές είναι και οι δυο κολώνες από τον γερανό του πλοίου που στέκονται όρθιες σαν γίγαντες που προστατεύουν το κουφάρι του.

Ταξιδέψτε μέσα απ' αυτό το βίντεο του περιοδικού "Greek Diver" σ' ένα από τα πιο ενδιαφέροντα ναυάγια της χώρας μας.



Format : Matroska
Format version : Version 1
File size : 384 MiB
Duration : 37mn 33s
Overall bit rate : 1 430 Kbps
Encoded date : UTC 2014-02-23 13:00:23
Writing application : AVSMatroskaFile
Writing library : libebml v0.7.7 + libmatroska v0.8.1

Video
ID : 1
Format : AVC
Format/Info : Advanced Video Codec
Format profile : Main@L5.1
Format settings, CABAC : Yes
Format settings, ReFrames : 1 frame
Codec ID : V_MPEG4/ISO/AVC
Duration : 37mn 33s
Bit rate : 1 177 Kbps
Width : 720 pixels
Height : 576 pixels
Display aspect ratio : 5:4
Frame rate mode : Constant
Frame rate : 25.000 fps
Standard : PAL
Color space : YUV
Chroma subsampling : 4:2:0
Bit depth : 8 bits
Scan type : Progressive
Bits/(Pixel*Frame) : 0.114
Stream size : 316 MiB (82%)
Default : Yes
Forced : No

Audio
ID : 2
Format : MPEG Audio
Format version : Version 1
Format profile : Layer 3
Codec ID : A_MPEG/L3
Codec ID/Hint : MP3
Duration : 37mn 33s
Bit rate mode : Constant
Bit rate : 224 Kbps
Channel count : 2 channels
Sampling rate : 48.0 KHz
Compression mode : Lossy
Stream size : 60.2 MiB (16%)
Writing library : LAMELAME_MAJOR_VERSI
Default : Yes
Forced : No



Κατεβάστε εδώ:
Greek.Diver.Marianna.Wreck.mkv
Κατηγορία: ΑΛΛΑ ΚΑΝΑΛΙΑ (ΔΙΑΦΟΡΑ) |
Only registered users can add comments.
[ Registration | Login ]

Σύνδεση / Εγγραφή

Login:
Password:

Φιλικές Σελίδες

Αναζήτηση Σελίδας

Αναζήτηση Μέσω Google

EZ Archive