Η ΧΑΡΑΥΓΗ ΤΗΣ ΝΙΚΗΣ (1971) «Λάκης Κομνηνός, Νίκος Δαδινόπουλος, Μπέτυ Αρβανίτη» - 25 October 2013 - Ελληνική Τηλεόραση | Διαδικτυακά Παιχνίδια & Κανάλια
Monday - Δευτέρα, 05 December - Δεκέμβριος 2016, 00:20
Καλωσόρισες Guest | RSS

EZAccess Ελληνική Τηλεόραση

Κεντρική Σελίδα » 2013 » October - Οκτώβριος » 25 » Η ΧΑΡΑΥΓΗ ΤΗΣ ΝΙΚΗΣ (1971) «Λάκης Κομνηνός, Νίκος Δαδινόπουλος, Μπέτυ Αρβανίτη»
Η ΧΑΡΑΥΓΗ ΤΗΣ ΝΙΚΗΣ (1971) «Λάκης Κομνηνός, Νίκος Δαδινόπουλος, Μπέτυ Αρβανίτη»


Η ΧΑΡΑΥΓΗ ΤΗΣ ΝΙΚΗΣ (1971) «Λάκης Κομνηνός, Νίκος Δαδινόπουλος, Μπέτυ Αρβανίτη»

ΕΙΔΟΣ ΤΑΙΝΙΑΣ: ΠΟΛΕΜΙΚΗ
ΓΛΩΣΣΑ: ΕΛΛΗΝΙΚΑ - ΑΓΓΛΙΚΑ - ΓΕΡΜΑΝΙΚΑ
Διάρκεια:       92 λεπτά
ΣΥΝΤΕΛΕΣΤΕΣ
Σκηνοθεσία: Ντίμης (Δημήτρης) Δαδήρας
Σενάριο: Γιώργος Λαζαρίδης
Μουσική: Κώστας Καπνίσης
Φωτογραφία: Παύλος Φιλίππου
Μοντάζ:        Παύλος Φιλίππου
Β.σκηνοθέτη: Άρης Χατζόπουλος, Αντώνης Μιχαλέας, Νίκος Αναγνωστάκης
Φωνοληψία: Αντώνης Μπαϊρακτάρης
Μηχανικός ήχου: Μικές Δαμαλάς
Σκηνογραφία: Πέτρος Καπουράλης
Κοστούμια: Κώστας Παπαχρήστος
Τραγούδι: Νίκος Ξυλούρης
Ειδικά εφέ: Γιάννης Σαμιώτης
Ηλεκτρολόγος: Αριστείδης Βαλσαμίδης, Λευτέρης Καραγεωργόπουλος, Ηλίας Κατσιμπάρδης
Μακενίστας: Γρηγόρης Σαμιώτης
Μπούμαν: Μιχάλης Μιχαήλογλου
Παραγωγή: Γενική Κινηματογραφικών Επιχειρήσεων

ΠΡΩΤΑΓΩΝΙΣΤΟΥΝ
Λάκης Κομνηνός..........Λευτέρης Σήφακας
Νίκος Δαδινόπουλος......(υπλγός) Νικήτας Πετράκης
Λευτέρης Βουρνάς........(τχης) Σούμπερτ
Δήμος Σταρένιος.........Φραντζέσκος Πετράκης
Γκίκας Μπινιάρης........Μηνάς Σήφακας
Γιώργος Βελέντζας.......(σχης) Πετρίδης
Μπέτυ Αρβανίτη..........Χρύσα
Μιράντα Κουνελάκη.......Μάρθα Καλογερή
Ίλια Λιβυκού............Χρυσάνθη Πετράκη
Άντα Πατρέλλη...........Αστερίτσα



Οι συμμαχικες δυναμεις της Μεσης Ανατολης αναθετουν στον Νικητα,το γιο ενος μπεκρη συνεργατη των Γερμανων,
την καταστροφη του Γερμανικου στρατιωτικου αεροδρομιου της Κρητης.Τοσο ο Νικητας οσο και ο Λευτερης,ο αρχηγος
των ανταρτων,αγαπουν την Μαρθα.
Λιγο πριν την αφιξη των κομμαντος, οι ανταρτες καταστρεφουν μια γεφυρα. Οι Γερμανοι συλλαμβανουν τον πατερα του
Λευτερη και τη Μαρθα, για να αναγκασουν το Λευτερη να παραδοθει.
Αυτος ομως ουτε παραδινεται, ουτε βοηθαει το Νικητα στην αποστολη, γιατι την θεωρει καθαρη αυτοκτονια.....
Η ταινία προκάλεσε μεγάλη φασαρία στην αίθουσα του Φεστβάλ ταινιών στην Θεσσαλονίκη οταν προβλήθηκε.
Τον λόγο θα τον διαπιστώσετε μόνοι σας....
Ομως παραμένει μια απο τις καλύτερες ταινίες που γυρίστηκαν την εποχή εκείνη.
Γυρίστηκε στο Ρέθυμνο της Κρήτης.
Φοβερή η σκηνή που ο Δήμος Σταρένιος λεέι την πείφημη ατάκα "ΟΙ ΓΕΡΜΑΝΟΙ ΕΙΝΑΙ ΦΙΛΟΙ ΜΑΣ" που στις μέρες
μας ειναι πολύ επίκαιρη.....





General
Format                           : AVI
Format/Info                      : Audio Video Interleave
File size                        : 848 MiB
Duration                         : 1h 32mn
Overall bit rate                 : 1 288 Kbps

Video
ID                               : 0
Format                           : MPEG-4 Visual
Format settings, BVOP            : Yes
Format settings, QPel            : No
Format settings, GMC             : No warppoints
Format settings, Matrix          : Default (H.263)
Muxing mode                      : Packed bitstream
Codec ID                         : DX50
Codec ID/Hint                    : DivX 5
Duration                         : 1h 32mn
Bit rate                         : 1 150 Kbps
Width                            : 640 pixels
Height                           : 480 pixels
Display aspect ratio             : 4:3
Frame rate                       : 25.000 fps
Color space                      : YUV
Chroma subsampling               : 4:2:0
Bit depth                        : 8 bits
Scan type                        : Progressive
Bits/(Pixel*Frame)               : 0.150
Stream size                      : 758 MiB (89%)
Writing library                  : DivX 6.8.5 (UTC 2009-08-20)

Audio
ID                               : 1
Format                           : MPEG Audio
Format version                   : Version 1
Format profile                   : Layer 3
Codec ID                         : 55
Codec ID/Hint                    : MP3
Duration                         : 1h 32mn
Bit rate mode                    : Constant
Bit rate                         : 128 Kbps
Channel(s)                       : 2 channels
Sampling rate                    : 44.1 KHz
Video delay                      : 26ms
Stream size                      : 84.3 MiB (10%)
Alignment                        : Split accross interleaves
Interleave, duration             : 40 ms (1.00 video frame)
Title                            : Audio Stream







Οι ευχαριστίες στον DRACULASEDESSA.

Κατηγορία: ΑΛΛΑ ΚΑΝΑΛΙΑ (ΔΙΑΦΟΡΑ) |
Only registered users can add comments.
[ Registration | Login ]

Σύνδεση / Εγγραφή

Login:
Password:

Φιλικές Σελίδες

Αναζήτηση Σελίδας

Αναζήτηση Μέσω Google

EZ Archive