ΜΕΤΕΩΡΑ (2012) - Metéora (2012) - 6 September 2013 - Ελληνική Τηλεόραση | Διαδικτυακά Παιχνίδια & Κανάλια
Saturday - Σάββατο, 03 December - Δεκέμβριος 2016, 15:41
Καλωσόρισες Guest | RSS

EZAccess Ελληνική Τηλεόραση

Κεντρική Σελίδα » 2013 » September - Σεπτέμβριος » 6 » ΜΕΤΕΩΡΑ (2012) - Metéora (2012)
ΜΕΤΕΩΡΑ (2012) - Metéora (2012)


ΜΕΤΕΩΡΑ (2012) - Metéora (2012)


Σκηνοθεσία: Σπύρος Σταθουλόπουλος
Σενάριο: Σπύρος Σταθουλόπουλος, Ασημάκης Αλφα Παγίδας
Ηθοποιοί: Θοδωρής Ζουμπουλίδης, Ταμίλλα Κουλίεβα
Είδος: Drama

Υπόθεση
12ος αιώνας. Ο Θεόδωρος είναι ένας μοναχός που ζει στα Μετέωρα αποτραβηγμένος από τα εγκόσμια. Η αφοσίωση του στον Θεό είναι απόλυτη, ως τη στιγμή που θα γνωρίσει μια μοναχή από παρακείμενο μοναστήρι. Η φλογερή σχέση τους θα προκαλέσει τη πίστη τους στα θεία και θα τους βάλει σε κίνδυνο.







Format : Matroska
Format version : Version 2
File size : 1.21 GiB
Duration : 1h 17mn
Overall bit rate : 2 226 Kbps
Writing application : HandBrake 0.9.8
Writing library : libmkv 0.6.5
Video
ID : 1
Format : AVC
Format/Info : Advanced Video Codec
Format profile : High@L3.0
Format settings, CABAC : Yes
Format settings, ReFrames : 4 frames
Codec ID : V_MPEG4/ISO/AVC
Duration : 1h 17mn
Bit rate : 1 800 Kbps
Width : 720 pixels
Height : 464 pixels
D.A.R : 1065X464
Display aspect ratio : 2.25:1
Frame rate mode : Variable
Frame rate : 25.000 fps
Color space : YUV
Chroma subsampling : 4:2:0
Bit depth : 8 bits
Scan type : Progressive
Bits/(Pixel*Frame) : 0.216
Stream size : 967 MiB (78%)
Writing library : x264 core 120
Audio
ID : 2
Format : AC-3
Format/Info : Audio Coding 3
Mode extension : CM (complete main)
Format settings, Endianness : Big
Codec ID : A_AC3
Duration : 1h 17mn
Bit rate mode : Constant
Bit rate : 448 Kbps
Channel(s) : 6 channels
Channel positions : Front: L C R, Side: L R, LFE
Sampling rate : 48.0 KHz
Bit depth : 16 bits
Compression mode : Lossy
Stream size : 250 MiB (20%)
Language : Greek
Default : Yes
Forced : No

Κατεβάστε εδώ:

Meteora.2012.avi

Κατηγορία: ΑΛΛΑ ΚΑΝΑΛΙΑ (ΔΙΑΦΟΡΑ) |
Only registered users can add comments.
[ Registration | Login ]

Σύνδεση / Εγγραφή

Login:
Password:

Φιλικές Σελίδες

Αναζήτηση Σελίδας

Αναζήτηση Μέσω Google

EZ Archive