ΜΠΙΤ ΣΤΡΙΤ: ΧΟΡΕΥΟΝΤΑΣ ΣΤΟΥΣ ΔΡΟΜΟΥΣ - Beat Street 1984 DVDRip x264 «ΕΛΛΗΝΙΚΟΙ ΥΠΟΤΙΤΛΟΙ» - 18 November 2013 - Ελληνική Τηλεόραση | Διαδικτυακά Παιχνίδια & Κανάλια
Monday - Δευτέρα, 05 December - Δεκέμβριος 2016, 04:21
Καλωσόρισες Guest | RSS

EZAccess Ελληνική Τηλεόραση

Κεντρική Σελίδα » 2013 » November - Νοέμβριος » 18 » ΜΠΙΤ ΣΤΡΙΤ: ΧΟΡΕΥΟΝΤΑΣ ΣΤΟΥΣ ΔΡΟΜΟΥΣ - Beat Street 1984 DVDRip x264 «ΕΛΛΗΝΙΚΟΙ ΥΠΟΤΙΤΛΟΙ»
ΜΠΙΤ ΣΤΡΙΤ: ΧΟΡΕΥΟΝΤΑΣ ΣΤΟΥΣ ΔΡΟΜΟΥΣ - Beat Street 1984 DVDRip x264 «ΕΛΛΗΝΙΚΟΙ ΥΠΟΤΙΤΛΟΙ»


ΜΠΙΤ ΣΤΡΙΤ: ΧΟΡΕΥΟΝΤΑΣ ΣΤΟΥΣ ΔΡΟΜΟΥΣ - Beat Street 1984 DVDRip x264 «ΕΛΛΗΝΙΚΟΙ ΥΠΟΤΙΤΛΟΙ»


Η ταινία Beat Street/1984 υπήρξε (μαζί με το ντοκιμαντέρ Wild Style/1983) εν πολλοίς υπεύθυνο
για την προώθηση της χιπ χοπ κουλτούρας έξω από τα σύνορα των ΗΠΑ και για την περαιτέρω
άνοδο της δημοφιλίας της στη χώρα.

Ταινία με ιστορικά πολύτιμες, εμφανίσεις των πιο διάσημων ομάδων b-boys της Νέας Υόρκης
(Rock Steady Crew και ΝΥ City Breakers), αλλά και θρυλικών καλλιτεχνών του χώρου όπως ο
Grandmaster Flash και ο Afrika Bambaataa.

Directed by ..............Stan Lathan
Produced by ...................Harry Belafonte, David V. Picker
Written by ...................Andy Davis, David Gilbert, Paul Golding, Steven Hager (story)



Cast
Rae Dawn Chong - Tracy Carlson
Guy Davis - Kenny "Double K" Kirkland
Jon Chardiet - Ramon "Ramo"
Leon W. Grant - Chollie
Saundra Santiago - Carmen Carraro
Robert Taylor - Lee Kirkland
Mary Alice - Cora Kirkland
Shawn Elliott - Domingo
Jim Borelli - Monte
Dean Elliot - Henri
Franc Reyes - Luis
Tonya Pinkins - Angela
Lee Chamberlain - Alicia
Duane Jones - Robert
DJ Little Louie Vega - DJ in background in club
Afrika Bambaataa & the Soul Sonic Force - Themselves
Jazzy Jay - Himself
Doug E. Fresh - Himself
New York City Breakers - Themselves
Rock Steady Crew - Themselves
Clive "Kool Herc" Campbell - Himself
Treacherous Three - Themselves
Grandmaster Melle Mel & the Furious Five - Themselves



Format : Matroska
Format version : Version 2
File size : 1.40 GiB
Duration : 1h 46mn
Overall bit rate : 1 883 Kbps
Encoded date : UTC 2013-07-07 19:47:15
Writing application : mkvmerge v6.2.0 ('Promised Land') built on Apr 28 2013 12:22:01
Writing library : libebml v1.3.0 + libmatroska v1.4.0

Video
ID : 1
Format : AVC
Format/Info : Advanced Video Codec
Format profile : High@L4.1
Format settings, CABAC : Yes
Format settings, ReFrames : 8 frames
Codec ID : V_MPEG4/ISO/AVC
Duration : 1h 46mn
Bit rate : 1 690 Kbps
Width : 720 pixels
Height : 384 pixels
Display aspect ratio : 1.85:1
Frame rate mode : Constant
Frame rate : 23.976 fps
Color space : YUV
Chroma subsampling : 4:2:0
Bit depth : 8 bits
Scan type : Progressive
Bits/(Pixel*Frame) : 0.255
Stream size : 1.23 GiB (88%)
Writing library : x264 core 133 r2334 a3ac64b



Audio
ID : 2
Format : AC-3
Format/Info : Audio Coding 3
Format profile : Dolby Digital
Mode extension : CM (complete main)
Format settings, Endianness : Big
Codec ID : A_AC3
Duration : 1h 46mn
Bit rate mode : Constant
Bit rate : 192 Kbps
Channel(s) : 2 channels
Channel positions : Front: L R
Sampling rate : 48.0 KHz
Bit depth : 16 bits
Compression mode : Lossy
Stream size : 146 MiB (10%)
Default : Yes
Forced : No



Κατεβάστε εδώ:
Available to users only
Κατηγορία: ΑΛΛΑ ΚΑΝΑΛΙΑ (ΔΙΑΦΟΡΑ) |
Only registered users can add comments.
[ Registration | Login ]

Σύνδεση / Εγγραφή

Login:
Password:

Φιλικές Σελίδες

Αναζήτηση Σελίδας

Αναζήτηση Μέσω Google

EZ Archive