O ΑΡΧΟΝΤΑΣ ΤΩΝ ΔΑΧΤΥΛΙΔΙΩΝ (1978) «ΕΝΣΩΜΑΤΩΜΕΝΟΙ ΕΛΛΗΝΙΚΟΙ ΥΠΟΤΙΤΛΟΙ» - THE LORD OF THE RINGS «EMBEDDED GREEK SUBS» - 7 April 2014 - Ελληνική Τηλεόραση | Διαδικτυακά Παιχνίδια & Κανάλια
Saturday - Σάββατο, 03 December - Δεκέμβριος 2016, 08:43
Καλωσόρισες Guest | RSS

EZAccess Ελληνική Τηλεόραση

Κεντρική Σελίδα » 2014 » April - Απρίλιος » 7 » O ΑΡΧΟΝΤΑΣ ΤΩΝ ΔΑΧΤΥΛΙΔΙΩΝ (1978) «ΕΝΣΩΜΑΤΩΜΕΝΟΙ ΕΛΛΗΝΙΚΟΙ ΥΠΟΤΙΤΛΟΙ» - THE LORD OF THE RINGS «EMBEDDED GREEK SUBS»
O ΑΡΧΟΝΤΑΣ ΤΩΝ ΔΑΧΤΥΛΙΔΙΩΝ (1978) «ΕΝΣΩΜΑΤΩΜΕΝΟΙ ΕΛΛΗΝΙΚΟΙ ΥΠΟΤΙΤΛΟΙ» - THE LORD OF THE RINGS «EMBEDDED GREEK SUBS»


O ΑΡΧΟΝΤΑΣ ΤΩΝ ΔΑΧΤΥΛΙΔΙΩΝ (1978)  «ΕΝΣΩΜΑΤΩΜΕΝΟΙ ΕΛΛΗΝΙΚΟΙ ΥΠΟΤΙΤΛΟΙ» - THE LORD OF THE RINGS «EMBEDDED GREEK SUBS»

Τίτλος ταινίας: THE LORD OF THE RINGS
Ελληνικός Τίτλος: Ο ΑΡΧΟΝΤΑΣ ΤΩΝ ΔΑΧΤΥΛΙΔΙΩΝ
Έτος παραγωγής: 1978
Είδος ταινίας: Κινούμενα Σχέδια, Περιπέτεια Φαντασίας
Γλώσσα ομιλίας: Αγγλικά
Διάρκεια ταινίας: 2 ώρες 08 λεπτά
Σκηνοθεσία: Ralph Bakshi
Ηθοποιοί (Voices): Christopher Guard (Frodo), William Squire (Gandalf), Michael Scholes (Sam), John Hurt (Aragorn), Simon Chandler (Merry), Dominic Guard (Pippin), Norman Bird (Bilbo), Michael Graham Cox (Boromir), Anthony Daniels (Legolas), David Buck (Gimli), Peter Woodthorpe (Gollum), Fraser Kerr (Saruman), Philip Stone (Theoden), Michael Deacon (Wormtongue), Andre Morell (Elrond)

J.R.R. Tolkien's "O Άρχοντας των δαχτυλιδιών" είναι μια Κινούμενων Σχεδίων ταινία φαντασίας του 1978 που σκηνοθετει ο Ralph Bakshi. Είναι μια προσαρμογή του πρώτου μισού του "Ο Άρχοντας των δαχτυλιδιών". Στην "μέση Γη", η ταινία ακολουθεί μια ομάδα hobbits, τις νεράιδες, τους ανθρώπους, τους νάνους και τους μάγους που διαμορφώνουν μια "συντροφία". Αρχίζουν μια αναζήτηση για να καταστρέψουν το ένα δαχτυλίδι που γίνεται από το μελαχροινό Άρχοντα Sauron, και εξασφαλίζουν την καταστροφή του. Ο διευθυντής Ralph Bakshi αντιμετώπισε το γράψιμο Tolkien νωρίς στη σταδιοδρομία του, και είχε κάνει διάφορες προσπάθειες να παραγάγει το "Άρχοντα των δαχτυλιδιών" ως Animated ταινία. Αν και ήταν μια οικονομική επιτυχία, έλαβε μια μικτή αντίδραση από τους κριτικούς, και οι διανομείς αρνήθηκαν να χρηματοδοτήσουν μια συνέxεια για να καλύψουν το υπόλοιπο της ιστορίας. Εντούτοις, η ταινία προκάλεσε το νέο ενδιαφέρον για το γράψιμο Tolkien, ενθαρρύνoντας την παραγωγή διάφορων περαιτέρω προσαρμογών της ιστορίας όπως και την τριλογία που είδαμε στα cinema.

ΠΡΟΣΟΧΗ: Η Ταινία ΔΕΝ ΕΙΝΑΙ ΓΙΑ ΠΟΛΥ ΜΙΚΡΑ ΠΑΙΔΙΑ, προτεινόμενη ηλικία απο 12+






General
Format                           : AVI
Format/Info                      : Audio Video Interleave
File size                        : 1.79 GiB
Duration                         : 2h 8mn
Overall bit rate                 : 1 998 Kbps

Video
ID                               : 0
Format                           : MPEG-4 Visual
Format profile                   : Advanced Simple@L5
Format settings, BVOP            : 1
Format settings, QPel            : No
Format settings, GMC             : No warppoints
Format settings, Matrix          : Default (H.263)
Muxing mode                      : Packed bitstream
Codec ID                         : XVID
Codec ID/Hint                    : XviD
Duration                         : 2h 8mn
Bit rate                         : 1 798 Kbps
Width                            : 720 pixels
Height                           : 400 pixels
Display aspect ratio             : 16:9
Frame rate                       : 25.000 fps
Color space                      : YUV
Chroma subsampling               : 4:2:0
Bit depth                        : 8 bits
Scan type                        : Progressive
Compression mode                 : Lossy
Bits/(Pixel*Frame)               : 0.250
Stream size                      : 1.61 GiB (90%)
Writing library                  : XviD 64

Audio
ID                               : 1
Format                           : AC-3
Format/Info                      : Audio Coding 3
Format profile                   : Dolby Digital
Mode extension                   : CM (complete main)
Codec ID                         : 2000
Duration                         : 2h 7mn
Bit rate mode                    : Constant
Bit rate                         : 192 Kbps
Channel(s)                       : 2 channels
Channel positions                : Front: L R
Sampling rate                    : 48.0 KHz
Bit depth                        : 16 bits
Compression mode                 : Lossy
Stream size                      : 176 MiB (10%)
Alignment                        : Split accross interleaves
Interleave, duration             : 64 ms (1.60 video frames)
Interleave, preload duration     : 500 ms

Κατεβάστε εδώ:
ARXONTASBERA1978PAIDIKO.avi
 
Κατηγορία: ΑΛΛΑ ΚΑΝΑΛΙΑ (ΔΙΑΦΟΡΑ) |
Only registered users can add comments.
[ Registration | Login ]

Σύνδεση / Εγγραφή

Login:
Password:

Φιλικές Σελίδες

Αναζήτηση Σελίδας

Αναζήτηση Μέσω Google

EZ Archive