Ο ΓΟΥΙΝΙ ΤΟ ΑΡΚΟΥΔΑΚΙ: ΟΙ ΠΕΡΙΠΕΤΕΙΕΣ ΤΟΥ ΓΟΥΪΝΙ - The.Many.Adventures.of.Winnie.the.Pooh.1977.720p «ΜΕΤΑΓΛΩΤΤΙΣΜΕΝΟ ΣΤΑ ΕΛΛΗΝΙΚΑ» - 4 March 2014 - Ελληνική Τηλεόραση | Διαδικτυακά Παιχνίδια & Κανάλια
Sunday - Κυριακή, 11 December - Δεκέμβριος 2016, 06:02
Καλωσόρισες Guest | RSS

EZAccess Ελληνική Τηλεόραση

Κεντρική Σελίδα » 2014 » March - Μάρτιος » 4 » Ο ΓΟΥΙΝΙ ΤΟ ΑΡΚΟΥΔΑΚΙ: ΟΙ ΠΕΡΙΠΕΤΕΙΕΣ ΤΟΥ ΓΟΥΪΝΙ - The.Many.Adventures.of.Winnie.the.Pooh.1977.720p «ΜΕΤΑΓΛΩΤΤΙΣΜΕΝΟ ΣΤΑ ΕΛΛΗΝΙΚΑ»
Ο ΓΟΥΙΝΙ ΤΟ ΑΡΚΟΥΔΑΚΙ: ΟΙ ΠΕΡΙΠΕΤΕΙΕΣ ΤΟΥ ΓΟΥΪΝΙ - The.Many.Adventures.of.Winnie.the.Pooh.1977.720p «ΜΕΤΑΓΛΩΤΤΙΣΜΕΝΟ ΣΤΑ ΕΛΛΗΝΙΚΑ»


Ο ΓΟΥΙΝΙ ΤΟ ΑΡΚΟΥΔΑΚΙ: ΟΙ ΠΕΡΙΠΕΤΕΙΕΣ ΤΟΥ ΓΟΥΪΝΙ (1977) 
«ΜΕΤΑΓΛΩΤΤΙΣΜΕΝΟ ΣΤΑ ΕΛΛΗΝΙΚΑ» - The.Many.Adventures.of.Winnie.the.Pooh.1977.720p.BluRay X264 «GREEK AUDIO»
                       
Ο αξιολάτρευτος αρκούδος επιστρέφει μαζί με όλους τους αγαπημένους του φίλους στο Δάσος των Γαλάζιων Ονείρων, για μια ολοκαίνουργια τρυφερή περιπέτεια που θα ζεστάνει τις καρδιές μικρών και μεγάλων! Όταν ο Γκαρής χάνει την ουρά του, η Κουκουβάγια στέλνει όλη την απίθανη παρέα - το Γουίνι, τον Τίγρη, το Λαγό, το Γουρουνάκι, τον μικρούλη Ρο και την Κάνγκου - σε αποστολή: να βοηθήσουν τον Γκαρή να βρει μια νέα ουρά και να σώσουν τον Κρίστοφερ Ρόμπιν από τον "Γυρίντομα", ένα μυστηριώδες πλάσμα με πυκνό τρίχωμα. Τελικά η μέρα αποδεικνύεται πολύ περιπετειώδης για ένα αρκουδάκι που απλά ξεκίνησε να βρει λίγο μέλι...



General
Format                                   : Matroska
Format version                           : Version 4 / Version 2
File size                                : 1.50 GiB
Duration                                 : 1h 13mn
Overall bit rate                         : 2 908 Kbps
Encoded date                             : UTC 2014-02-16 17:49:54
Writing library                          : libebml v1.3.0 + libmatroska v1.4.1

Video
ID                                       : 1
Format                                   : AVC
Format/Info                              : Advanced Video Codec
Format profile                           : High@L4.1
Format settings, CABAC                   : Yes
Format settings, ReFrames                : 5 frames
Codec ID                                 : V_MPEG4/ISO/AVC
Duration                                 : 1h 13mn
Bit rate                                 : 2 714 Kbps
Width                                    : 1 200 pixels
Height                                   : 720 pixels
Display aspect ratio                     : 1.667
Frame rate mode                          : Constant
Frame rate                               : 23.976 fps
Color space                              : YUV
Chroma subsampling                       : 4:2:0
Bit depth                                : 8 bits
Scan type                                : Progressive
Bits/(Pixel*Frame)                       : 0.131
Stream size                              : 1.37 GiB (91%)
Writing library                          : x264 core 129 r2245 bc13772
Default                                  : Yes
Forced                                   : No

Audio
ID                                       : 2
Format                                   : AC-3
Format/Info                              : Audio Coding 3
Mode extension                           : CM (complete main)
Format settings, Endianness              : Big
Codec ID                                 : A_AC3
Duration                                 : 1h 13mn
Bit rate mode                            : Constant
Bit rate                                 : 192 Kbps
Channel(s)                               : 2 channels
Channel positions                        : Front: L R
Sampling rate                            : 48.0 KHz
Bit depth                                : 16 bits
Compression mode                         : Lossy
Stream size                              : 102 MiB (7%)
Language                                 : Greek



Κατεβάστε εδώ:

OIPERIPETEIESTOUARKOYDAKOY1977720.mkv

Κατηγορία: ΑΛΛΑ ΚΑΝΑΛΙΑ (ΔΙΑΦΟΡΑ) |
Only registered users can add comments.
[ Registration | Login ]

Σύνδεση / Εγγραφή

Login:
Password:

Φιλικές Σελίδες

Αναζήτηση Σελίδας

Αναζήτηση Μέσω Google

EZ Archive