Ο ΚΟΜΗΣ ΔΡΑΚΟΥΛΑΣ - DRACULA: SOVEREIGN OF THE DAMNED «ΜΕΤΑΓΛΩΤΤΙΣΜΕΝΟ ΣΤΑ ΕΛΛΗΝΙΚΑ» - 17 October 2013 - Ελληνική Τηλεόραση | Διαδικτυακά Παιχνίδια & Κανάλια
Friday - Παρασκευή, 09 December - Δεκέμβριος 2016, 21:13
Καλωσόρισες Guest | RSS

EZAccess Ελληνική Τηλεόραση

Κεντρική Σελίδα » 2013 » October - Οκτώβριος » 17 » Ο ΚΟΜΗΣ ΔΡΑΚΟΥΛΑΣ - DRACULA: SOVEREIGN OF THE DAMNED «ΜΕΤΑΓΛΩΤΤΙΣΜΕΝΟ ΣΤΑ ΕΛΛΗΝΙΚΑ»
Ο ΚΟΜΗΣ ΔΡΑΚΟΥΛΑΣ - DRACULA: SOVEREIGN OF THE DAMNED «ΜΕΤΑΓΛΩΤΤΙΣΜΕΝΟ ΣΤΑ ΕΛΛΗΝΙΚΑ»


Ο ΚΟΜΗΣ ΔΡΑΚΟΥΛΑΣ - DRACULA: SOVEREIGN OF THE DAMNED «ΜΕΤΑΓΛΩΤΤΙΣΜΕΝΟ ΣΤΑ ΕΛΛΗΝΙΚΑ»


 Το γνωστό ιαπωνέζικο animation, "Yami no Teio Kyuketsuki Dracula" γνωστό και ως Emperor of Darkness - Vampire Dracula ή Dracula: Sovereign of the Damned, που βγήκε το 1980 και κυκλοφόρησε στην ελληνική έκδοση βιντεοκασσέτας μεταγλωτισμένο στα ελληνικά το 1986.



Format                         : AVI
Format/Info                    : Audio Video Interleave
File size                      : 1.46 GiB
Duration                       : 1h 30mn
Overall bit rate               : 2 325 Kbps
Writing application            : VirtualDubMod 1.5.4.1 (build 2178/release)
Writing library                : VirtualDubMod build 2178/release

Video
ID                             : 0
Format                         : MPEG-4 Visual
Format profile                 : Advanced Simple@L5
Format settings, BVOP          : No
Format settings, QPel          : No
Format settings, GMC           : No warppoints
Format settings, Matrix        : Custom
Codec ID                       : XVID
Codec ID/Hint                  : XviD
Duration                       : 1h 30mn
Bit rate                       : 2 126 Kbps
Width                          : 640 pixels
Height                         : 480 pixels
Display aspect ratio           : 4:3
Frame rate                     : 25.000 fps
Color space                    : YUV
Chroma subsampling             : 4:2:0
Bit depth                      : 8 bits
Scan type                      : Progressive
Compression mode               : Lossy
Bits/(Pixel*Frame)             : 0.277
Stream size                    : 1.34 GiB (91%)
Writing library                : XviD 64

Audio
ID                             : 1
Format                         : MPEG Audio
Format version                 : Version 1
Format profile                 : Layer 3
Mode                           : Joint stereo
Mode extension                 : MS Stereo
Codec ID                       : 55
Codec ID/Hint                  : MP3
Duration                       : 1h 30mn
Bit rate mode                  : Constant
Bit rate                       : 192 Kbps
Channel(s)                     : 2 channels
Sampling rate                  : 48.0 KHz
Compression mode               : Lossy
Stream size                    : 124 MiB (8%)
Alignment                      : Aligned on interleaves
Interleave, duration           : 80 ms (2.00 video frames)
Interleave, preload duration   : 504 ms
Writing library                : LAME3.98r
Encoding settings              : -m j -V 4 -q 2 -lowpass 18.6 -b 192

Κατεβάστε εδώ:
drakoulokyrkuriarxosarxos.avi.html

Κατηγορία: ΑΛΛΑ ΚΑΝΑΛΙΑ (ΔΙΑΦΟΡΑ) |
Only registered users can add comments.
[ Registration | Login ]

Σύνδεση / Εγγραφή

Login:
Password:

Φιλικές Σελίδες

Αναζήτηση Σελίδας

Αναζήτηση Μέσω Google

EZ Archive