Ο ΜΙΚΡΟΣ ΗΡΩΑΣ ΤΗΣ ΑΜΕΡΙΚΗΣ - The Adventures Of The American Rabbit (1986) «ΜΕΤΑΓΛΩΤΤΙΣΜΕΝΟ ΣΤΑ ΕΛΛΗΝΙΚΑ» - 28 October 2013 - Ελληνική Τηλεόραση | Διαδικτυακά Παιχνίδια & Κανάλια
Saturday - Σάββατο, 10 December - Δεκέμβριος 2016, 18:29
Καλωσόρισες Guest | RSS

EZAccess Ελληνική Τηλεόραση

Κεντρική Σελίδα » 2013 » October - Οκτώβριος » 28 » Ο ΜΙΚΡΟΣ ΗΡΩΑΣ ΤΗΣ ΑΜΕΡΙΚΗΣ - The Adventures Of The American Rabbit (1986) «ΜΕΤΑΓΛΩΤΤΙΣΜΕΝΟ ΣΤΑ ΕΛΛΗΝΙΚΑ»
Ο ΜΙΚΡΟΣ ΗΡΩΑΣ ΤΗΣ ΑΜΕΡΙΚΗΣ - The Adventures Of The American Rabbit (1986) «ΜΕΤΑΓΛΩΤΤΙΣΜΕΝΟ ΣΤΑ ΕΛΛΗΝΙΚΑ»


Ο ΜΙΚΡΟΣ ΗΡΩΑΣ ΤΗΣ ΑΜΕΡΙΚΗΣ - The Adventures Of The American Rabbit (1986) «ΜΕΤΑΓΛΩΤΤΙΣΜΕΝΟ ΣΤΑ ΕΛΛΗΝΙΚΑ»


Για την καταπολέμηση του κακού, ένα νεαρό κουνέλι μπορεί να μετατραπεί σ' έναν σούπερ ήρωα.

Παραγωγή: 1986
Είδος: animation, fantasy, family
Διάρκεια: 78'



Format                         : AVI

Format/Info                    : Audio Video Interleave

File size                      : 700 MiB

Duration                       : 1h 18mn

Overall bit rate               : 1 253 Kbps

Writing application            : VirtualDubMod 1.5.4.1 (build 2178/release)

Writing library                : VirtualDub build 32842/release



Video

ID                             : 0

Format                         : MPEG-4 Visual

Format profile                 : Advanced Simple@L5

Format settings, BVOP          : 1

Format settings, QPel          : No

Format settings, GMC           : No warppoints

Format settings, Matrix        : Custom

Codec ID                       : XVID

Codec ID/Hint                  : XviD

Duration                       : 1h 18mn

Bit rate                       : 1 051 Kbps

Width                          : 528 pixels

Height                         : 400 pixels

Display aspect ratio           : 4:3

Frame rate                     : 25.000 fps

Color space                    : YUV

Chroma subsampling             : 4:2:0

Bit depth                      : 8 bits

Scan type                      : Progressive

Compression mode               : Lossy

Bits/(Pixel*Frame)             : 0.199

Stream size                    : 587 MiB (84%)

Writing library                : XviD 64



Audio

ID                             : 1

Format                         : MPEG Audio

Format version                 : Version 1

Format profile                 : Layer 3

Mode                           : Joint stereo

Mode extension                 : MS Stereo

Codec ID                       : 55

Codec ID/Hint                  : MP3

Duration                       : 1h 18mn

Bit rate mode                  : Constant

Bit rate                       : 192 Kbps

Channel(s)                     : 2 channels

Sampling rate                  : 48.0 KHz

Compression mode               : Lossy

Stream size                    : 107 MiB (15%)

Alignment                      : Aligned on interleaves

Interleave, duration           : 40 ms (1.00 video frame)

Interleave, preload duration   : 504 ms

Writing library                : LAME3.98r

Encoding settings              : -m j -V 4 -q 2 -lowpass 18.6 -b 192

Κατεβάστε εδώ:
Available to users only
Κατηγορία: ΑΛΛΑ ΚΑΝΑΛΙΑ (ΔΙΑΦΟΡΑ) |
Only registered users can add comments.
[ Registration | Login ]

Σύνδεση / Εγγραφή

Login:
Password:

Φιλικές Σελίδες

Αναζήτηση Σελίδας

Αναζήτηση Μέσω Google

EZ Archive