Ο ΣΕΡΙΦΗΣ ΤΟΥ ΔΙΑΣΤΗΜΑΤΟΣ ΚΑΙ ΟΙ ΑΣΤΡΟΜΑΧΗΤΕΣ (18 ΕΠΕΙΣΟΔΙΑ) - SABER RIDER & THE STAR SHERIFFS (18 EPISODES) «ΜΕΤΑΓΛΩΤΤΙΣΜΕΝΟ ΣΤΑ ΕΛΛΗΝΙΚΑ» - 9 September 2013 - Ελληνική Τηλεόραση | Διαδικτυακά Παιχνίδια & Κανάλια
Saturday - Σάββατο, 10 December - Δεκέμβριος 2016, 18:33
Καλωσόρισες Guest | RSS

EZAccess Ελληνική Τηλεόραση

Κεντρική Σελίδα » 2013 » September - Σεπτέμβριος » 9 » Ο ΣΕΡΙΦΗΣ ΤΟΥ ΔΙΑΣΤΗΜΑΤΟΣ ΚΑΙ ΟΙ ΑΣΤΡΟΜΑΧΗΤΕΣ (18 ΕΠΕΙΣΟΔΙΑ) - SABER RIDER & THE STAR SHERIFFS (18 EPISODES) «ΜΕΤΑΓΛΩΤΤΙΣΜΕΝΟ ΣΤΑ ΕΛΛΗΝΙΚΑ»
Ο ΣΕΡΙΦΗΣ ΤΟΥ ΔΙΑΣΤΗΜΑΤΟΣ ΚΑΙ ΟΙ ΑΣΤΡΟΜΑΧΗΤΕΣ (18 ΕΠΕΙΣΟΔΙΑ) - SABER RIDER & THE STAR SHERIFFS (18 EPISODES) «ΜΕΤΑΓΛΩΤΤΙΣΜΕΝΟ ΣΤΑ ΕΛΛΗΝΙΚΑ»


Ο ΣΕΡΙΦΗΣ ΤΟΥ ΔΙΑΣΤΗΜΑΤΟΣ ΚΑΙ ΟΙ ΑΣΤΡΟΜΑΧΗΤΕΣ (18 ΕΠΕΙΣΟΔΙΑ) - SABER RIDER & THE STAR SHERIFFS (18 EPISODES) «ΜΕΤΑΓΛΩΤΤΙΣΜΕΝΟ ΣΤΑ ΕΛΛΗΝΙΚΑ»


Ο Σερίφης του Διαστήματος και οι Αστρομαχητές (αγγλ. Saber Rider and the Star Sheriffs) είναι μια τηλεοπτική σειρά Άνιμε, της δεκαετίας του '80. Έκανε πρεμιέρα το 1987 στην Αμερική, εκπέμποντας συνολικά 52 επεισόδια, προτού η εταιρεία παραγωγής το ακυρώσει το Σεπτέμβριο του 1988.

Η σειρά βασίστηκε στο ιαπωνικό άνιμε του 1984, Sei Jūshi Bismarck, του στούντιο Pierrot, το οποίο είχε μέτρια απήχηση στην χώρα παραγωγής του, προτού τα δικαιώματά του εξαγοραστούν από την World Event Productions (WEP), την ίδια εταιρεία πίσω από το Voltron το 1986.

Η σειρά διαδραματίζεται στο μακρινό μέλλον: Η ανθρωπότητα έχει επεκταθεί πέρα της γης και αποικίσει πλανήτες σε ολόκληρο το σύμπαν, δημιουργώντας τα Νέα Σύνορα. Για να προστατευθούν οι έποικοι και να διατηρηθούν οι νόμοι εντός των Νέων Συνόρων, ένας στρατιωτικός οργανισμός, το Αρχηγείο του Ιππικού έπρεπε να δημιουργηθεί. Το Αρχηγείο του Ιππικού διατηρεί μεγάλο όγκου στρατού με αποκλειστικό σκοπό την προστασία των Νέων Συνόρων και εντός του υπάρχει μία ειδική μονάδα γνωστή ως Αστρομαχητές. Οι Αστρομαχητές είναι επίλεκτοι πράκτορες που ερευνούν εγκλήματα και ξεσκεπάζουν δολοπλοκίες εναντίον της ασφάλειας των Νέων Συνόρων...

Ο ΣΕΡΙΦΗΣ ΤΟΥ ΔΙΑΣΤΗΜΑΤΟΣ ΚΑΙ ΟΙ ΑΣΤΡΟΜΑΧΗΤΕΣ (18 ΕΠΕΙΣΟΔΙΑ) - SABER RIDER & THE STAR SHERIFFS (18 EPISODES) «ΜΕΤΑΓΛΩΤΤΙΣΜΕΝΟ ΣΤΑ ΕΛΛΗΝΙΚΑ»

Format : AVI
Format/Info : Audio Video Interleave
File size : 733 MiB
Duration : 1h 22mn
Overall bit rate : 1 238 Kbps

Video:
ID : 0
Format : MPEG-4 Visual
Format settings, BVOP : 1
Format settings, QPel : No
Format settings, GMC : No warppoints
Format settings, Matrix : Default (H.263)
Muxing mode : Packed bitstream
Codec ID : DX50
Codec ID/Hint : DivX 5
Duration : 1h 22mn
Bit rate : 1 101 Kbps
Width : 704 pixels
Height : 512 pixels
Display aspect ratio : 1.375
Frame rate : 25.000 fps
Color space : YUV
Chroma subsampling : 4:2:0
Bit depth : 8 bits
Scan type : Progressive
Compression mode : Lossy
Bits/(Pixel*Frame) : 0.122
Stream size : 652 MiB (89%)
Writing library : DivX 5.1.1 (Maupiti) (UTC 2003-11-19)

Audio:
ID : 1
Format : MPEG Audio
Format version : Version 1
Format profile : Layer 3
Codec ID : 55
Codec ID/Hint : MP3
Duration : 1h 22mn
Bit rate mode : Constant
Bit rate : 128 Kbps
Channel(s) : 2 channels
Sampling rate : 48.0 KHz
Compression mode : Lossy
Stream size : 75.8 MiB (10%)
Alignment : Split accross interleaves
Interleave, duration : 40 ms (1.00 video frame)
Interleave, preload duration : 500 ms

Κατεβάστε εδώ:

http://turbobit.net/v0mxyazarvxg/O.Serifhs.Tou.Diasthmatos.Kai.Oi.Astromaxhtes.18.Eps.Pack.part1.rar.html
http://turbobit.net/i55cw3jcv9bw/O.Serifhs.Tou.Diasthmatos.Kai.Oi.Astromaxhtes.18.Eps.Pack.part2.rar.html
http://turbobit.net/uu2jvajbz70y/O.Serifhs.Tou.Diasthmatos.Kai.Oi.Astromaxhtes.18.Eps.Pack.part3.rar.html

Κατηγορία: ΑΛΛΑ ΚΑΝΑΛΙΑ (ΔΙΑΦΟΡΑ) |
Only registered users can add comments.
[ Registration | Login ]

Σύνδεση / Εγγραφή

Login:
Password:

Φιλικές Σελίδες

Αναζήτηση Σελίδας

Αναζήτηση Μέσω Google

EZ Archive