ΠΕΙΡΑΤΕΣ! (2012) - THE PIRATES! BAND OF MISFITS «ΜΕΤΑΓΛΩΤΤΙΣΜΕΝΟ ΣΤΑ ΕΛΛΗΝΙΚΑ» - 22 November 2013 - Ελληνική Τηλεόραση | Διαδικτυακά Παιχνίδια & Κανάλια
Sunday - Κυριακή, 11 December - Δεκέμβριος 2016, 06:05
Καλωσόρισες Guest | RSS

EZAccess Ελληνική Τηλεόραση

Κεντρική Σελίδα » 2013 » November - Νοέμβριος » 22 » ΠΕΙΡΑΤΕΣ! (2012) - THE PIRATES! BAND OF MISFITS «ΜΕΤΑΓΛΩΤΤΙΣΜΕΝΟ ΣΤΑ ΕΛΛΗΝΙΚΑ»
ΠΕΙΡΑΤΕΣ! (2012) - THE PIRATES! BAND OF MISFITS «ΜΕΤΑΓΛΩΤΤΙΣΜΕΝΟ ΣΤΑ ΕΛΛΗΝΙΚΑ»


ΠΕΙΡΑΤΕΣ! (2012) - THE PIRATES! BAND OF MISFITS «ΜΕΤΑΓΛΩΤΤΙΣΜΕΝΟ ΣΤΑ ΕΛΛΗΝΙΚΑ»


Έτος παραγωγής: 2012.
Είδος ταινίας: Κινούμενα Σχέδια, Περιπέτεια, Κωμωδία.
Στούντιο Παραγωγής: Aardman Studios.
Γλώσσα ομιλίας: Ελληνικά (Μεταγλωτισμένο).
Διάρκεια ταινίας: 1 ώρα & 24 λεπτά.
Σκηνοθεσία:   Peter Lord, Jeff Newitt.
Ηθοποιοί (Μεταγλώτιση): Χρήστος Θάνος, Λίλα Μουτσοπούλου, Μάντυ Λάμπου, ΤΖίμης Απέργης, Ηλίας Ζερβός, Κώστας Τσάκωνας, Αργύρης Παυλίδης, Δημήτρης Παπαδάτος, Φώτης Πετρίδης, Άγγελος Λιάγκος, Βασίλης Μήλιος, Θανάσης Κουρλαμπάς, Μαρία Ζερβού, Πέτρος Δαμούλης, Χρύσα Διαμαντοπούλου.

Ο Καπετάνιος Πειρατής, ένας ενθουσιώδης κουρσάρος ο οποίος δε φημίζεται ακριβώς για τον τρόμο που προκαλεί στους απανταχού ναυτικούς, έχει έναν και μοναδικό στόχο στην «καριέρα» του: να αναδειχθεί... «Πειρατής της Χρονιάς»! Αποφασισμένος να πετύχει κι αδιαφορώντας για τους ανομολόγητους κινδύνους που μπορεί να κρύβουν οι αχανείς ωκεανοί, πείθει το πλήρωμά του, μια ετερόκλητη σύναξη από γκαντέμηδες θαλασσόλυκους του... γλυκού νερού, να βάλει τα δυνατά του, προκειμένου να κατατροπώσει τους αντιπάλους του, τον Μαύρο Μπέλαμι και την Λιζ Χατζάρα. Όμως, πολύ σύντομα οι τρεις πειρατές θα αναγκαστούν να συμμαχήσουν απέναντι στον κοινό εχθρό: μια διαβολική βασίλισσα, ταγμένη στην εξάλειψη της πειρατείας!













Format                                   : AVI
Format/Info                              : Audio Video Interleave
File size                                : 1.04 GiB
Duration                                 : 1h 24mn
Overall bit rate                         : 1 760 Kbps

Video
ID                                       : 0
Format                                   : MPEG-4 Visual
Format profile                           : Advanced Simple@L5
Format settings, BVOP                    : 2
Format settings, QPel                    : No
Format settings, GMC                     : No warppoints
Format settings, Matrix                  : Default (H.263)
Codec ID                                 : XVID
Codec ID/Hint                            : XviD
Duration                                 : 1h 24mn
Bit rate                                 : 1 368 Kbps
Width                                    : 720 pixels
Height                                   : 304 pixels
Display aspect ratio                     : 2.35:1
Frame rate                               : 25.000 fps
Color space                              : YUV
Chroma subsampling                       : 4:2:0
Bit depth                                : 8 bits
Scan type                                : Progressive
Compression mode                         : Lossy
Bits/(Pixel*Frame)                       : 0.250
Stream size                              : 827 MiB (78%)
Writing library                          : XviD 1.2.1 (UTC 2008-12-04)

Audio
ID                                       : 1
Format                                   : AC-3
Format/Info                              : Audio Coding 3
Mode extension                           : CM (complete main)
Format settings, Endianness              : Big
Codec ID                                 : 2000
Duration                                 : 1h 24mn
Bit rate mode                            : Constant
Bit rate                                 : 384 Kbps
Channel(s)                               : 6 channels
Channel positions                        : Front: L C R, Side: L R, LFE
Sampling rate                            : 48.0 KHz
Bit depth                                : 16 bits
Compression mode                         : Lossy
Stream size                              : 232 MiB (22%)
Alignment                                : Aligned on interleaves
Interleave, duration                     : 64 ms (1.60 video frames)
Interleave, preload duration             : 192 ms









Κατεβάστε εδώ:
Available to users only
Κατηγορία: ΑΛΛΑ ΚΑΝΑΛΙΑ (ΔΙΑΦΟΡΑ) |
Only registered users can add comments.
[ Registration | Login ]

Σύνδεση / Εγγραφή

Login:
Password:

Φιλικές Σελίδες

Αναζήτηση Σελίδας

Αναζήτηση Μέσω Google

EZ Archive