ΠΟΚΕΜΟΝ ΟΛΟΚΛΗΡΩΜΕΝΗ 2 ΣΕΖΟΝ (ΕΠΕΙΣΟΔΙΑ 01-35) - POKEMON COMPLETE SEASON 2 ADVENTURES ON THE ORANGE ISLANDS «ΜΕΤΑΓΛΩΤΤΙΣΜΕΝΟ ΣΤΑ ΕΛΛΗΝΙΚΑ» - 24 September 2013 - Ελληνική Τηλεόραση | Διαδικτυακά Παιχνίδια & Κανάλια
Sunday - Κυριακή, 11 December - Δεκέμβριος 2016, 04:10
Καλωσόρισες Guest | RSS

EZAccess Ελληνική Τηλεόραση

Κεντρική Σελίδα » 2013 » September - Σεπτέμβριος » 24 » ΠΟΚΕΜΟΝ ΟΛΟΚΛΗΡΩΜΕΝΗ 2 ΣΕΖΟΝ (ΕΠΕΙΣΟΔΙΑ 01-35) - POKEMON COMPLETE SEASON 2 ADVENTURES ON THE ORANGE ISLANDS «ΜΕΤΑΓΛΩΤΤΙΣΜΕΝΟ ΣΤΑ ΕΛΛΗΝΙΚΑ»
ΠΟΚΕΜΟΝ ΟΛΟΚΛΗΡΩΜΕΝΗ 2 ΣΕΖΟΝ (ΕΠΕΙΣΟΔΙΑ 01-35) - POKEMON COMPLETE SEASON 2 ADVENTURES ON THE ORANGE ISLANDS «ΜΕΤΑΓΛΩΤΤΙΣΜΕΝΟ ΣΤΑ ΕΛΛΗΝΙΚΑ»


ΠΟΚΕΜΟΝ ΟΛΟΚΛΗΡΩΜΕΝΗ 2 ΣΕΖΟΝ (
ΕΠΕΙΣΟΔΙΑ 01-35) - POKEMON COMPLETE SEASON 2 "ADVENTURES ON THE ORANGE ISLANDS" «ΜΕΤΑΓΛΩΤΤΙΣΜΕΝΟ ΣΤΑ ΕΛΛΗΝΙΚΑ»

Τα Πόκεμον είναι μια δημοφιλής σειρά βιντεοπαιχνιδιών αλλά και κινουμένων σχεδίων ανιμέ. Όλα άρχισαν όταν ο Satoshi Tajiri σκέφτηκε την ιδέα να δημιουργήσει ένα παιχνίδι για το Game Boy της Nintendo όπου "ζωντανά" πλάσματα θα μπορούσαν να πιάνονται και να ανταλλάσσονται. Αυτή ήταν η γέννηση των Πόκεμον. Το ανιμέ Πόκεμον προβλήθηκε στην Ιαπωνία για πρώτη φορά ένα χρόνο περίπου μετά το βιντεοπαιχνίδι και δεν άργησε πολύ να φτάσει σε πολλές άλλες χώρες στις οποίες έκανε επίσης μεγάλη επιτυχία.

 Συνεχίζοντας τις περιπέτειες της σειράς o πρωταγωνιστής Ash Ketchum, συνεχίζει να ταξιδεύει με την Misty, τον Pikachu, και τον Brock, ο οποίος αργότερα τους εγκαταλείπει. Αργότερα τρέχει σ' έναν παρατηρητή πόκεμον που ονομάζεται Tracey.



Format                                   : AVI
Format/Info                              : Audio Video Interleave
File size                                : 209 MiB
Duration                                 : 21mn 50s
Overall bit rate                         : 1 335 Kbps
Writing library                          : VirtualDub build 32842/release

Video
ID                                       : 0
Format                                   : MPEG-4 Visual
Format profile                           : Simple@L1
Format settings, BVOP                    : No
Format settings, QPel                    : No
Format settings, GMC                     : No warppoints
Format settings, Matrix                  : Default (H.263)
Codec ID                                 : XVID
Codec ID/Hint                            : XviD
Duration                                 : 21mn 50s
Bit rate                                 : 1 198 Kbps
Width                                    : 640 pixels
Height                                   : 480 pixels
Display aspect ratio                     : 4:3
Frame rate                               : 23.976 fps
Color space                              : YUV
Chroma subsampling                       : 4:2:0
Bit depth                                : 8 bits
Scan type                                : Progressive
Compression mode                         : Lossy
Bits/(Pixel*Frame)                       : 0.163
Stream size                              : 187 MiB (90%)
Writing library                          : Lavc52.41.0

Audio
ID                                       : 1
Format                                   : MPEG Audio
Format version                           : Version 1
Format profile                           : Layer 3
Mode                                     : Joint stereo
Mode extension                           : MS Stereo
Codec ID                                 : 55
Codec ID/Hint                            : MP3
Duration                                 : 21mn 50s
Bit rate mode                            : Constant
Bit rate                                 : 128 Kbps
Channel(s)                               : 2 channels
Sampling rate                            : 48.0 KHz
Compression mode                         : Lossy
Stream size                              : 20.0 MiB (10%)
Alignment                                : Split accross interleaves
Interleave, duration                     : 42 ms (1.00 video frame)
Interleave, preload duration             : 500 ms


Κατεβάστε εδώ:

http://turbobit.net/i6vsd0isaorh/PIKAABC.S2.part1.rar.html
http://turbobit.net/pafds0v3tqwk/PIKAABC.S2.part2.rar.html
http://turbobit.net/4qv81g1bz55r/PIKAABC.S2.part3.rar.html
http://turbobit.net/w9v9wtcjytax/PIKAABC.S2.part4.rar.html
http://turbobit.net/k07crfudln8f/PIKAABC.S2.part5.rar.html
http://turbobit.net/cwl81elqotsc/PIKAABC.S2.part6.rar.html

Κωδικός αποσυμπίεσης των αρχείων rar:
thelwseires

Κατηγορία: ΑΛΛΑ ΚΑΝΑΛΙΑ (ΔΙΑΦΟΡΑ) |
Only registered users can add comments.
[ Registration | Login ]

Σύνδεση / Εγγραφή

Login:
Password:

Φιλικές Σελίδες

Αναζήτηση Σελίδας

Αναζήτηση Μέσω Google

EZ Archive