ΣΚΟΥΜΠΙ ΝΤΟΥ 2: ΤΑ ΤΕΡΑΤΑ ΑΠΕΛΕΥΘΕΡΩΘΗΚΑΝ (2004) «ΜΕΤΑΓΛΩΤΤΙΣΜΕΝΟ ΣΤΑ ΕΛΛΗΝΙΚΑ» - SCOOBY-DOO 2 : MONSTERS UNLEASHED «GREEK AUDIO» - 3 April 2014 - Ελληνική Τηλεόραση | Διαδικτυακά Παιχνίδια & Κανάλια
Saturday - Σάββατο, 03 December - Δεκέμβριος 2016, 15:40
Καλωσόρισες Guest | RSS

EZAccess Ελληνική Τηλεόραση

Κεντρική Σελίδα » 2014 » April - Απρίλιος » 3 » ΣΚΟΥΜΠΙ ΝΤΟΥ 2: ΤΑ ΤΕΡΑΤΑ ΑΠΕΛΕΥΘΕΡΩΘΗΚΑΝ (2004) «ΜΕΤΑΓΛΩΤΤΙΣΜΕΝΟ ΣΤΑ ΕΛΛΗΝΙΚΑ» - SCOOBY-DOO 2 : MONSTERS UNLEASHED «GREEK AUDIO»
ΣΚΟΥΜΠΙ ΝΤΟΥ 2: ΤΑ ΤΕΡΑΤΑ ΑΠΕΛΕΥΘΕΡΩΘΗΚΑΝ (2004) «ΜΕΤΑΓΛΩΤΤΙΣΜΕΝΟ ΣΤΑ ΕΛΛΗΝΙΚΑ» - SCOOBY-DOO 2 : MONSTERS UNLEASHED «GREEK AUDIO»


ΣΚΟΥΜΠΙ ΝΤΟΥ 2: ΤΑ ΤΕΡΑΤΑ ΑΠΕΛΕΥΘΕΡΩΘΗΚΑΝ (2004) «ΜΕΤΑΓΛΩΤΤΙΣΜΕΝΟ ΣΤΑ ΕΛΛΗΝΙΚΑ» - SCOOBY-DOO 2 : MONSTERS UNLEASHED «GREEK AUDIO»

Οι κάτοικοι της Κούλσβιλ υποδέχονται με χαρά τα μέλη της ατρόμητης παρέας που έκανε διάσημη την μικρή τους πόλη. Βέβαια αυτοί δεν είναι άλλοι από τον Φρεντ, τη Δάφνη, τη Βέλμα, τον Σάγκι και τον Σκούμπι Ντου! Όμως η θερμή αυτή υποδοχή τους δεν αργεί να επισκιαστεί από μια σειρά δυσάρεστων και απρόσμενων καταστάσεων. Η αριβίστρια δημοσιογράφος Χέδερ Τζάσπερ Χάου είναι αποφασισμένη να προβάλει τα μέλη της παρέας ως... όχι και τόσο χαρισματικούς ντετέκτιβς, αμφισβητώντας την εξυπνάδα και τη γενναιότητά τους. Παράλληλα, σημειώνεται διάρρηξη στο Μουσείο Εγκληματολογίας της πόλης, που φιλοξενεί έκθεση με τις ενδυμασίες όλων των μοχθηρών κακοποιών, που η ατρόμητη παρέα είχε βοηθήσει στη σύλληψή τους. Φαίνεται πως κάποιος που έκλεψε τις στολές της έκθεσης, έχει κατά νου ένα σκοτεινό σχέδιο. Σύντομα ο πανικός καταλαμβάνει τους κατοίκους της μικρής πόλης, καθώς η ασφάλειά τους απειλείται από τα τρομακτικά πλάσματα που άλλοτε ο Σκούμπι Ντου και η παρέα του είχαν αντιμετωπίσει. Μήπως πίσω απ’ όλα αυτά κρύβεται ο παρανοϊκός επιστήμονας Τζόναθαν Τζέικομπο, που επέστρεψε για να πάρει την εκδίκησή του; Η παράτολμη παρέα αρχίζει τις έρευνες και το κουβάρι του μυστηρίου ξετυλίγεται με απρόβλεπτες εξελίξεις...




Έτος: 2004
Διάρκεια: 84 λεπτά
Κατηγορία: Κωμωδίες
Πρωταγωνιστές:
Φρέντι Πρινζ τζούνιορ, Σάρα Μισέλ Γκέλαρ, Μάθιου Λίλαρντ, Πίτερ Μπόιλ, Λίντα Καρντελίνι, Τιμ Μπλέικ Νέλσον, Αλίσια Σιλβερστόουν
Σκηνοθεσία: Ράτζα Γκόσνελ




General
Format : AVI
Format/Info : Audio Video Interleave
Format profile : OpenDML
File size : 1.65 GiB
Duration : 1h 28mn
Overall bit rate : 2 650 Kbps
Movie name : SCOOBY_DOO_2.Title1.DVDRip
Writing application : Lavf53.32.100
Original source form/Name : SCOOBY_DOO_2

Video
ID : 0
Format : MPEG-4 Visual
Format profile : Advanced Simple@L5
Format settings, BVOP : 2
Format settings, QPel : No
Format settings, GMC : No warppoints
Format settings, Matrix : Default (H.263)
Muxing mode : Packed bitstream
Codec ID : XVID
Codec ID/Hint : XviD
Duration : 1h 28mn
Bit rate : 2 191 Kbps
Width : 720 pixels
Height : 406 pixels
Display aspect ratio : 16:9
Frame rate : 25.000 fps
Color space : YUV
Chroma subsampling : 4:2:0
Bit depth : 8 bits
Scan type : Progressive
Compression mode : Lossy
Bits/(Pixel*Frame) : 0.300
Stream size : 1.36 GiB (83%)
Writing library : XviD 64

Audio
ID : 1
Format : AC-3
Format/Info : Audio Coding 3
Mode extension : CM (complete main)
Format settings, Endianness : Big
Codec ID : 2000
Duration : 1h 28mn
Bit rate mode : Constant
Bit rate : 448 Kbps
Channel(s) : 6 channels
Channel positions : Front: L C R, Side: L R, LFE
Sampling rate : 48.0 KHz
Bit depth : 16 bits
Compression mode : Lossy
Stream size : 285 MiB (17%)
Alignment : Aligned on interleaves
Interleave, duration : 32 ms (0.80 video frame)

Κατεβάστε εδώ:
skylakos-apeleu8erw8hkan.avi
Κατηγορία: ΑΛΛΑ ΚΑΝΑΛΙΑ (ΔΙΑΦΟΡΑ) |
Only registered users can add comments.
[ Registration | Login ]

Σύνδεση / Εγγραφή

Login:
Password:

Φιλικές Σελίδες

Αναζήτηση Σελίδας

Αναζήτηση Μέσω Google

EZ Archive