*ΣΥΛΛΟΓΗ* ΜΙΚΡΟ ΜΟΥ ΠΟΝΥ - My Little Pony Collection «ΜΕΤΑΓΛΩΤΤΙΣΜΕΝΟ ΣΤΑ ΕΛΛΗΝΙΚΑ» - 31 July 2013 - Ελληνική Τηλεόραση | Διαδικτυακά Παιχνίδια & Κανάλια
Friday - Παρασκευή, 09 December - Δεκέμβριος 2016, 19:20
Καλωσόρισες Guest | RSS

EZAccess Ελληνική Τηλεόραση

Κεντρική Σελίδα » 2013 » July - Ιούλιος » 31 » *ΣΥΛΛΟΓΗ* ΜΙΚΡΟ ΜΟΥ ΠΟΝΥ - My Little Pony Collection «ΜΕΤΑΓΛΩΤΤΙΣΜΕΝΟ ΣΤΑ ΕΛΛΗΝΙΚΑ»
*ΣΥΛΛΟΓΗ* ΜΙΚΡΟ ΜΟΥ ΠΟΝΥ - My Little Pony Collection «ΜΕΤΑΓΛΩΤΤΙΣΜΕΝΟ ΣΤΑ ΕΛΛΗΝΙΚΑ»


*ΣΥΛΛΟΓΗ* ΜΙΚΡΟ ΜΟΥ ΠΟΝΥ - My Little Pony Collection «ΜΕΤΑΓΛΩΤΤΙΣΜΕΝΟ ΣΤΑ ΕΛΛΗΝΙΚΑ»


Τα Πόνυ κατοικούν σε μια μακρινή ονειρική κοιλάδα! την λεγόμενη ''Ονειρεμένη Κοιλάδα'' Όταν έχουν μπελάδες πηγαίνουν από την άλλη μεριά του ουράνιου τόξου να φωνάξουν 3 παιδιά, τον Ντάνυ, την Μέγκαν και την Μόλλυ και μαζί ζούνε περιπέτειες πέρα από κάθε φαντασία!

Μια ομάδα από πανέμορφα, πολύχρωμα πόνυ κατοικούν σε μια μακρινή, ονειρική κοιλάδα. Εκεί ζουν ήρεμα &  αρμονικά.
Συχνά, τους επισκέπτεται η Μέγκαν που είναι μια δεκατριάχρονη κοπέλα. Η Μέγκαν παρέα με τα αδέρφια της αγαπούν τα πόνυ γιατί είναι γεμάτα από καλοσύνη, αγάπη & ευγένεια. Όλοι μαζί, θα ζήσουν περιπέτειες πέρα από κάθε φαντασία.





Format                           : AVI
Format/Info                      : Audio Video Interleave
File size                        : 500 MiB
Duration                         : 37mn 56s
Overall bit rate                 : 1 843 Kbps
Writing application              : VirtualDubMod 1.5.4.1 (build 2178/release)
Writing library                  : VirtualDubMod build 2178/release

Video
ID                               : 0
Format                           : MPEG-4 Visual
Format profile                   : AdvancedSimple@L5
Format settings, BVOP            : Yes
Format settings, QPel            : No
Format settings, GMC             : No warppoints
Format settings, Matrix          : Custom
Codec ID                         : XVID
Codec ID/Hint                    : XviD
Duration                         : 37mn 56s
Bit rate                         : 1 657 Kbps
Width                            : 720 pixels
Height                           : 544 pixels
Display aspect ratio             : 4:3
Frame rate                       : 25.000 fps
Resolution                       : 24 bits
Colorimetry                      : 4:2:0
Scan type                        : Progressive
Bits/(Pixel*Frame)               : 0.169
Stream size                      : 450 MiB (90%)
Writing library                  : XviD 64

Audio
ID                               : 1
Format                           : MPEG Audio
Format version                   : Version 1
Format profile                   : Layer 3
Format settings, Mode            : Joint stereo / MS Stereo
Codec ID                         : 55
Codec ID/Hint                    : MP3
Duration                         : 37mn 56s
Bit rate mode                    : Variable
Bit rate                         : 172 Kbps
Nominal bit rate                 : 192 Kbps
Channel(s)                       : 2 channels
Sampling rate                    : 48.0 KHz
Resolution                       : 16 bits
Stream size                      : 46.8 MiB (9%)
Alignment                        : Aligned on interleaves
Interleave, duration             : 24 ms (0.60 video frame)
Interleave, preload duration     : 204 ms
Writing library                  : LAME3.98r
Encoding settings                : -m j -V 4 -q 2 -lowpass 18.6 --abr 192






ΕΠΕΙΣΟΔΙΑ
The End of Flutter Valley.avi
The Movie.avi
The Quest of the Princess Ponies.avi
Bright Lights.avi
The Ghost of Paradise Estate.avi
The Return of Tambelon.avi
The Magic Coins.avi
The Glass Princess.avi
Rescue from Midnight Castle.avi
The Revolt of Paradise.avi
Escape from Catrina.avi
Through the Door.avi
Somnambula.avi
Crunch the Rockdog.avi
Flight to Cloud Castle.avi
Fugitive Flowers.avi
Woe Is Me.avi
Baby, It's Cold Outside.avi
The Golden Horseshoes.avi
Sweet Stuff and the Treasure Hunt.avi
The Prince and the Ponies.avi
Little Piece of Magic.avi
Would Be Dragonslayer.avi
Spike's Search.avi
The Ice Cream Wars.avi
Mish Mash Melee.avi
Pony Puppy.avi
The Great Rainbow Caper.avi





Ευχαριστούμε θερμά τον αρχικό uploader Panthro79!



http://turbobit.net/d20pji3se8z0/ALOGAKIA.V2.part1.rar.html
http://turbobit.net/zxgr3goh3k1e/ALOGAKIA.V2.part2.rar.html
http://turbobit.net/pjjx8xj5v305/ALOGAKIA.V2.part3.rar.html
http://turbobit.net/9v5ij09vx0am/ALOGAKIA.V2.part4.rar.html
http://turbobit.net/s297krp3dkcf/ALOGAKIA.V2.part5.rar.html
http://turbobit.net/1adqhyswlqg9/ALOGAKIA.V2.part6.rar.html
http://turbobit.net/zf0bzl6b6cr1/ALOGAKIA.V2.part7.rar.html
http://turbobit.net/ecsr06rrcn19/ALOGAKIA.V2.part8.rar.html


Κατηγορία: ΑΛΛΑ ΚΑΝΑΛΙΑ (ΔΙΑΦΟΡΑ) |
Only registered users can add comments.
[ Registration | Login ]

Σύνδεση / Εγγραφή

Login:
Password:

Φιλικές Σελίδες

Αναζήτηση Σελίδας

Αναζήτηση Μέσω Google

EZ Archive