ΤΑ ΑΔΕΡΦΙΑ ΚΟΑΛΑ: ΠΟΙΟΣ ΧΡΕΙΑΖΕΤΑΙ ΒΟΗΘΕΙΑ; - Koala Brothers: We're Here to Help (2005) «ΜΕΤΑΓΛΩΤΤΙΣΜΕΝΟ ΣΤΑ ΕΛΛΗΝΙΚΑ» - 28 October 2013 - Ελληνική Τηλεόραση | Διαδικτυακά Παιχνίδια & Κανάλια
Saturday - Σάββατο, 03 December - Δεκέμβριος 2016, 15:38
Καλωσόρισες Guest | RSS

EZAccess Ελληνική Τηλεόραση

Κεντρική Σελίδα » 2013 » October - Οκτώβριος » 28 » ΤΑ ΑΔΕΡΦΙΑ ΚΟΑΛΑ: ΠΟΙΟΣ ΧΡΕΙΑΖΕΤΑΙ ΒΟΗΘΕΙΑ; - Koala Brothers: We're Here to Help (2005) «ΜΕΤΑΓΛΩΤΤΙΣΜΕΝΟ ΣΤΑ ΕΛΛΗΝΙΚΑ»
ΤΑ ΑΔΕΡΦΙΑ ΚΟΑΛΑ: ΠΟΙΟΣ ΧΡΕΙΑΖΕΤΑΙ ΒΟΗΘΕΙΑ; - Koala Brothers: We're Here to Help (2005) «ΜΕΤΑΓΛΩΤΤΙΣΜΕΝΟ ΣΤΑ ΕΛΛΗΝΙΚΑ»


ΤΑ ΑΔΕΡΦΙΑ ΚΟΑΛΑ: ΠΟΙΟΣ ΧΡΕΙΑΖΕΤΑΙ ΒΟΗΘΕΙΑ; - Koala Brothers: We're Here to Help (2005) «ΜΕΤΑΓΛΩΤΤΙΣΜΕΝΟ ΣΤΑ ΕΛΛΗΝΙΚΑ»

 Ο Φλο και ο Φλάι, τα Μικρά Κοάλα, βγαίνουν για την καθημερινή περιπολία τους πάνω από την έρημο, αναζητώντας κάποιον που να χρειάζεται βοήθεια! Ποιον νομίζετε ότι θα βοηθήσουν σήμερα; Ένας μόνο τρόπος υπάρχει για να το μάθετε! Γι' αυτό λοιπόν, δέστε τη ζώνη σας και ετοιμαστείτε για ένα ταξίδι μαζί με τα μικρά κοάλα.



Format : AVI
Format/Info : Audio Video Interleave
File size : 1.19 GiB
Duration : 1h 22mn
Overall bit rate : 2 053 Kbps
Writing application : VirtualDubMod 1.5.4.1 (build 2178/release)
Writing library : VirtualDubMod build 2178/release

Video
ID : 0
Format : MPEG-4 Visual
Format profile : Advanced Simple@L5
Format settings, BVOP : 1
Format settings, QPel : No
Format settings, GMC : No warppoints
Format settings, Matrix : Default (H.263)
Muxing mode : Packed bitstream
Codec ID : XVID
Codec ID/Hint : XviD
Duration : 1h 22mn
Bit rate : 1 598 Kbps
Width : 640 pixels
Height : 480 pixels
Display aspect ratio : 4:3
Frame rate : 25.000 fps
Color space : YUV
Chroma subsampling : 4:2:0
Bit depth : 8 bits
Scan type : Progressive
Compression mode : Lossy
Bits/(Pixel*Frame) : 0.208
Stream size : 947 MiB (78%)
Writing library : XviD 1.2.0.dev47 (UTC 2006-11-01)

Audio
ID : 1
Format : AC-3
Format/Info : Audio Coding 3
Mode extension : CM (complete main)
Format settings, Endianness : Big
Codec ID : 2000
Duration : 1h 22mn
Bit rate mode : Constant
Bit rate : 448 Kbps
Channel(s) : 2 channels
Channel positions : Front: L R
Sampling rate : 48.0 KHz
Bit depth : 16 bits
Compression mode : Lossy
Stream size : 266 MiB (22%)
Alignment : Split accross interleaves
Interleave, duration : 80 ms (2.00 video frames)
Interleave, preload duration : 500 ms
Language : Greek

Κατεβάστε εδώ:
Available to users only
Κατηγορία: ΑΛΛΑ ΚΑΝΑΛΙΑ (ΔΙΑΦΟΡΑ) |
Only registered users can add comments.
[ Registration | Login ]

Σύνδεση / Εγγραφή

Login:
Password:

Φιλικές Σελίδες

Αναζήτηση Σελίδας

Αναζήτηση Μέσω Google

EZ Archive