ΤΑΝΤ: Ο ΧΑΜΕΝΟΣ ΕΞΕΡΕΥΝΗΤΗΣ - TAD THE LOST EXPLORER (2012) «ΜΕΤΑΓΛΩΤΤΙΣΜΕΝΟ ΣΤΑ ΕΛΛΗΝΙΚΑ» - 4 October 2013 - Ελληνική Τηλεόραση | Διαδικτυακά Παιχνίδια & Κανάλια
Sunday - Κυριακή, 11 December - Δεκέμβριος 2016, 09:57
Καλωσόρισες Guest | RSS

EZAccess Ελληνική Τηλεόραση

Κεντρική Σελίδα » 2013 » October - Οκτώβριος » 4 » ΤΑΝΤ: Ο ΧΑΜΕΝΟΣ ΕΞΕΡΕΥΝΗΤΗΣ - TAD THE LOST EXPLORER (2012) «ΜΕΤΑΓΛΩΤΤΙΣΜΕΝΟ ΣΤΑ ΕΛΛΗΝΙΚΑ»
ΤΑΝΤ: Ο ΧΑΜΕΝΟΣ ΕΞΕΡΕΥΝΗΤΗΣ - TAD THE LOST EXPLORER (2012) «ΜΕΤΑΓΛΩΤΤΙΣΜΕΝΟ ΣΤΑ ΕΛΛΗΝΙΚΑ»


ΤΑΝΤ: Ο ΧΑΜΕΝΟΣ ΕΞΕΡΕΥΝΗΤΗΣ - TAD THE LOST EXPLORER (2012) «ΜΕΤΑΓΛΩΤΤΙΣΜΕΝΟ ΣΤΑ ΕΛΛΗΝΙΚΑ»


    ΣΚΗΝΟΘΕΣΙΑ: Ενρίκε Γκάτο,
    ΣΕΝΑΡΙΟ: Βερόνικα Φερνάντες, Γιόρντι Γκασούλ, Νιλ Λαντό, Γκόρκα Μαγκαλόν,
    Ιγκνάσιο Ντελ Μοράλ, Ντιέγκο Σαν Χοσέ,
ΗΘΟΠΟΙΟΙ:
Παναγιώτης Καποδίστριας, Στεφανία Φιλιάδη,
    Ανδρέας Ευαγγελάτος,
    Πρεμιέρα (GR): 13/03/13
    Είδος ταινίας: Animation | Adventure
    Χώρα παραγωγής: Spain

Ισπανοί και Γάλλοι ένωσαν τις δυνάμεις τους, το 2012, στο ισπανικό animation «Tad, ο Χαμένος Εξερευνητής», ταινία βασισμένη στο κόμικς «Tadeo Jones and the Secret of Toactlum». Η ιστορία του Tad ξεκινάει το 2003, όταν ο σκηνοθέτης, Ενρίκε Γκάτο γύρισε την πρώτη του μικρού μήκους ταινία animation, γνωρίζοντας τεράστια επιτυχία.



Ο Ταντ, ένας απλός εργάτης ανασκαφών που όμως πάντα σχεδίαζε έρευνες για χαμένους πολιτισμούς και σπάνια αντικείμενα ιστορικής αξίας, έχει την ευκαιρία να ζήσει την περιπέτεια των ονείρων του, όταν - κατά λάθος - αναλαμβάνει να βρει μια χαμένη πόλη και τον θησαυρό που εκείνη κρύβει, παρέα με μερικούς αταίριαστους συντρόφους.

Format : AVI
Format/Info : Audio Video Interleave
Format profile : OpenDML
File size : 1.18 GiB
Duration : 1h 28mn
Overall bit rate : 1 923 Kbps
Movie name : TAD.Title1.DVDRip
Writing application : Lavf53.21.0
Original source form/Name : TAD



Video
ID : 0
Format : MPEG-4 Visual
Format profile : Advanced Simple@L5
Format settings, BVOP : 2
Format settings, QPel : No
Format settings, GMC : No warppoints
Format settings, Matrix : Default (H.263)
Muxing mode : Packed bitstream
Codec ID : XVID
Codec ID/Hint : XviD
Duration : 1h 28mn
Bit rate : 1 462 Kbps
Width : 720 pixels
Height : 406 pixels
Display aspect ratio : 16:9
Frame rate : 25.000 fps
Color space : YUV
Chroma subsampling : 4:2:0
Bit depth : 8 bits
Scan type : Progressive
Compression mode : Lossy
Bits/(Pixel*Frame) : 0.200
Stream size : 922 MiB (76%)
Writing library : XviD 1.2.1 (UTC 2008-12-04)



Audio
ID : 1
Format : AC-3
Format/Info : Audio Coding 3
Mode extension : CM (complete main)
Format settings, Endianness : Big
Codec ID : 2000
Duration : 1h 28mn
Bit rate mode : Constant
Bit rate : 448 Kbps
Channel(s) : 6 channels
Channel positions : Front: L C R, Side: L R, LFE
Sampling rate : 48.0 KHz
Bit depth : 16 bits
Compression mode : Lossy
Stream size : 283 MiB (23%)
Alignment : Aligned on interleaves
Interleave, duration : 32 ms (0.80 video frame)



Κατεβάστε εδώ:
Available to users only
Κατηγορία: ΑΛΛΑ ΚΑΝΑΛΙΑ (ΔΙΑΦΟΡΑ) |
Only registered users can add comments.
[ Registration | Login ]

Σύνδεση / Εγγραφή

Login:
Password:

Φιλικές Σελίδες

Αναζήτηση Σελίδας

Αναζήτηση Μέσω Google

EZ Archive