ΤΟ ΜΙΚΡΟ ΣΠΙΤΙ ΣΤΟ ΛΙΒΑΔΙ (1974-1983) (43 ΕΠΕΙΣΟΔΙΑ) «ΜΕΤΑΓΛΩΤΤΙΣΜΕΝΟ ΣΤΑ ΕΛΛΗΝΙΚΑ» - LITTLE HOUSE ON THE PRAIRIE «GREEK AUDIO» - 4 April 2014 - Ελληνική Τηλεόραση | Διαδικτυακά Παιχνίδια & Κανάλια
Wednesday - Τετάρτη, 07 December - Δεκέμβριος 2016, 12:30
Καλωσόρισες Guest | RSS

EZAccess Ελληνική Τηλεόραση

Κεντρική Σελίδα » 2014 » April - Απρίλιος » 4 » ΤΟ ΜΙΚΡΟ ΣΠΙΤΙ ΣΤΟ ΛΙΒΑΔΙ (1974-1983) (43 ΕΠΕΙΣΟΔΙΑ) «ΜΕΤΑΓΛΩΤΤΙΣΜΕΝΟ ΣΤΑ ΕΛΛΗΝΙΚΑ» - LITTLE HOUSE ON THE PRAIRIE «GREEK AUDIO»
ΤΟ ΜΙΚΡΟ ΣΠΙΤΙ ΣΤΟ ΛΙΒΑΔΙ (1974-1983) (43 ΕΠΕΙΣΟΔΙΑ) «ΜΕΤΑΓΛΩΤΤΙΣΜΕΝΟ ΣΤΑ ΕΛΛΗΝΙΚΑ» - LITTLE HOUSE ON THE PRAIRIE «GREEK AUDIO»


ΤΟ ΜΙΚΡΟ ΣΠΙΤΙ ΣΤΟ ΛΙΒΑΔΙ (1974-1983) (43 ΕΠΕΙΣΟΔΙΑ) «ΜΕΤΑΓΛΩΤΤΙΣΜΕΝΟ ΣΤΑ ΕΛΛΗΝΙΚΑ» - LITTLE HOUSE ON THE PRAIRIE «GREEK AUDIO»
 
Το Μικρό Σπίτι Στο Λιβάδι (The Little House on the Prairie) ήταν μια σειρά αμερικανικής προέλευσης αυτοτελών ωριαίων (με τις διαφημίσεις) επεισοδίων του Ραδιοτηλεοπτικού Δικτύου ΝBC. Ξεκίνησε να προβάλλεται στις 11 Σεπτεμβρίου του 1974 και ολοκληρώθηκε στις 21 Μαρτίου του 1983. Στην τηλεοπτική περίοδο1982-83, με την αποχώρηση (και το μετέπειτα θάνατο απο καρκίνο) του Michael Landon, η σειρά βγήκε στον αέρα με τον τίτλο "Little House: A New Beginning". Επίσης, μια ακόμα τρίωρη ειδική σύνθεση επεισοδίων με τη μορφή τηλεταινίας μακράς διαρκείας που ονομάστηκε "The Little House Years" βγήκε στον αέρα το 1979. 
 
Μεταγλωτισμένο: Στα Ελληνικά
 
Παραγωγή: 1974
Είδος Ταινίας: Δράμα, Ρομαντική, Οικογενειακή, Γουέστερν
Σκηνοθέτης: Michael Landon, William F. Claxton, Maury Dexter...
Ηθοποιοί:
Χρήστος Τσάγκας (Charles (Τζο) Ingalls (επ. 1-xx)) , Μάνος Βενιέρης (Charles (Τζο) Ingalls (επ. xx-xx)) , Ντίνος Καρύδης (Charles (Τζο) Ingalls (επ. xx-xx)) , Σοφία Μυρμηγκίδου (Caroline Quiner Ingalls) , Αλεξία Ασκαρίδου (Laura Ingalls Wilder) , Ματίνα Καρρά (Mary Ingalls Kendall (επ. xx-xx)) , Έφη Πίκουλα (Mary Ingalls Kendall (επ. xx-xx)) , Βίνα Παπαδοπούλου (Carrie Ingalls) , Μαριάννα Τριανταφυλλίδη (Albert (Quinn) Ingalls) , Μαρία Μπονίκα (Grace Ingalls) , Νίκος Λυκομήτρος (Nels Oleson (επ. xx-xx)) , Νίκος Πόγκας (Nels Oleson (επ. xx-xx) / Isaiah Edwards) , Γκάρυ Βοσκοπούλου (Harriet Oleson) , Νανά Νικολάου (Nellie Oleson Simms Dalton) , Ανδρέας Λιάσκος (Adam Kendall) , Γιώργος Βελέντζας (Rev. (παπάς) Robert Alden) , Αντώνης Αντωνίου (I) (Dr. (γιατρός) Hiram Baker) , Πέρυ Ποράβου (Eliza Jane Wilder) , Λόισκα Αβαγιανού , Κατερίνα Πετούση , Νατάσα Ασίκη , Μανώλης Γιούργος , Κατερίνα Γκίργκις , Πέτρος Δαμουλής , Χρήστος Ζορμπάς , Βασίλης Καϊλας , Χριστίνα Κουτσουδάκη , Γιώργος Μάζης , Παύλος Μηλιώνης , Σπύρος Μπιμπίλας , Ράνια Νικολαϊδου , Φώτης Πετρίδης , Άντρια Ράπτη , Χρύσα Σαμαρά , Στέλλα Σκορδαρά , Μαίρη Σταυρακέλη , Σωτήρης Τζιμόπουλος , Νίκη Τουλουμπάκη , Λουκάς Φραγκούλης , Γιώργος Χριστόπουλος



ΤΕΧΝΙΚΑ ΧΑΡΑΚΤΗΡΙΣΤΙΚΑ:
General
Complete name :1x8 - Ma's holiday.divx
Format : DivX
Format/Info : Hack of AVI
File size : 531 MiB
Duration : 47mn 7s
Overall bit rate : 1 576 Kbps

Video
ID : 0
Format : MPEG-4 Visual
Format settings, BVOP : No
Format settings, QPel : No
Format settings, GMC : No warppoints
Format settings, Matrix : Default (H.263)
Codec ID : DX50
Codec ID/Hint : DivX 5
Duration : 47mn 7s
Bit rate : 1 436 Kbps
Width : 640 pixels
Height : 480 pixels
Display aspect ratio : 4:3
Frame rate : 30.000 fps
Color space : YUV
Chroma subsampling : 4:2:0
Bit depth : 8 bits
Scan type : Progressive
Compression mode : Lossy
Bits/(Pixel*Frame) : 0.156
Stream size : 484 MiB (91%)
Title : Main
Writing library : DivX 6.4.0 (UTC 2006-10-03)

Audio
ID : 1
Format : MPEG Audio
Format version : Version 1
Format profile : Layer 3
Mode : Joint stereo
Mode extension : MS Stereo
Codec ID : 55
Codec ID/Hint : MP3
Duration : 47mn 7s
Bit rate mode : Constant
Bit rate : 128 Kbps
Channel count : 2 channels
Sampling rate : 44.1 KHz
Compression mode : Lossy
Stream size : 43.1 MiB (8%)
Alignment : Split accross interleaves
Interleave, duration : 33 ms (1.00 video frame)
Interleave, preload duration : 500 ms
Title : Audio



Κατεβάστε εδώ:
mikro-spiti.part1.rar
mikro-spiti.part2.rar
mikro-spiti.part3.rar
mikro-spiti.part4.rar

Κωδικός αποσυμπίεσης των αρχείων rar:
thelwseires
Κατηγορία: Greek TV (ET1) |
Only registered users can add comments.
[ Registration | Login ]

Σύνδεση / Εγγραφή

Login:
Password:

Φιλικές Σελίδες

Αναζήτηση Σελίδας

Αναζήτηση Μέσω Google

EZ Archive