ΤΡΕΛΛΗ ΔΕΙΝΟΣΑΥΡΟ-ΠΕΡΙΠΕΤΕΙΑ (2012) - DINO TIME «ΕΛΛΗΝΙΚΟΙ ΥΠΟΤΙΤΛΟΙ» - 27 September 2013 - Ελληνική Τηλεόραση | Διαδικτυακά Παιχνίδια & Κανάλια
Saturday - Σάββατο, 03 December - Δεκέμβριος 2016, 08:44
Καλωσόρισες Guest | RSS

EZAccess Ελληνική Τηλεόραση

Κεντρική Σελίδα » 2013 » September - Σεπτέμβριος » 27 » ΤΡΕΛΛΗ ΔΕΙΝΟΣΑΥΡΟ-ΠΕΡΙΠΕΤΕΙΑ (2012) - DINO TIME «ΕΛΛΗΝΙΚΟΙ ΥΠΟΤΙΤΛΟΙ»
ΤΡΕΛΛΗ ΔΕΙΝΟΣΑΥΡΟ-ΠΕΡΙΠΕΤΕΙΑ (2012) - DINO TIME «ΕΛΛΗΝΙΚΟΙ ΥΠΟΤΙΤΛΟΙ»
ΤΡΕΛΛΗ ΔΕΙΝΟΣΑΥΡΟ-ΠΕΡΙΠΕΤΕΙΑ (2012) - DINO TIME BRRip XviD «ΕΛΛΗΝΙΚΟΙ ΥΠΟΤΙΤΛΟΙ»

ΤΡΕΛΛΗ ΔΕΙΝΟΣΑΥΡΟ-ΠΕΡΙΠΕΤΕΙΑ
(2012) - DINO TIME BRRip XviD «ΕΛΛΗΝΙΚΟΙ ΥΠΟΤΙΤΛΟΙ»

 Τρεις περίεργα παιδιά κατά λάθος ταξιδεύουν με την μηχανή του χρόνου σε σχήμα αυγού 65 εκατομμύρια χρόνια πριν, στη μέση μιας φωλιάς αυγών δεινοσαύρων. Το πρώτο πράγμα που βλέπουν είναι ένα τεράστιο Τ-Rex που τους κοιτάζει με χαρά. Δεν είναι τροφή, είναι οικογένεια! Τώρα τα παιδιά πρέπει να βρουν το δρόμο τους πίσω στο παρόν, πριν εκκολαπτούν τα αυγά, και να αντιμετωπίσουν άλλα προϊστορικά τέρατα παράλληλα με τους κινδύνους που παραμονεύουν στο διάβα τους.



των Γιουκ Σουκ Τσόι, Τζον Κάφκα
με τους Ρομπ Σνάιντερ, Μέλανι Γκρίφιθ, Γουίλιαμ Μπόλντγουιν, Τζέιν Λιντς, Πάμελα Άντλον, Τάρα Στρονγκ, Στέφεν Μπόλντγουιν, Γιούρι Λόουενταλ



Video
ID : 0
Format : MPEG-4 Visual
Format profile : Advanced Simple@L5
Format settings, BVOP : 2
Format settings, QPel : No
Format settings, GMC : No warppoints
Format settings, Matrix : Default (H.263)
Codec ID : XVID
Codec ID/Hint : XviD
Duration : 1h 25mn
Bit rate : 1 007 Kbps
Width : 640 pixels
Height : 352 pixels
Display aspect ratio : 16:9
Frame rate : 23.976 fps
Color space : YUV
Chroma subsampling : 4:2:0
Bit depth : 8 bits
Scan type : Progressive
Compression mode : Lossy
Bits/(Pixel*Frame) : 0.186
Stream size : 616 MiB (88%)
Writing library : XviD 1.2.1 (UTC 2008-12-04)



Audio
ID : 1
Format : MPEG Audio
Format version : Version 1
Format profile : Layer 3
Codec ID : 55
Codec ID/Hint : MP3
Duration : 1h 25mn
Bit rate mode : Constant
Bit rate : 128 Kbps
Channel(s) : 2 channels
Sampling rate : 44.1 KHz
Compression mode : Lossy
Stream size : 78.2 MiB (11%)
Alignment : Split accross interleaves
Interleave, duration : 42 ms (1.00 video frame)
Interleave, preload duration : 500 ms

Κατεβάστε εδώ:

AYGA-DEINOS.rar

Κωδικός αποσυμπίεσης:
thelwseires

Κατηγορία: ΑΛΛΑ ΚΑΝΑΛΙΑ (ΔΙΑΦΟΡΑ) |
Only registered users can add comments.
[ Registration | Login ]

Σύνδεση / Εγγραφή

Login:
Password:

Φιλικές Σελίδες

Αναζήτηση Σελίδας

Αναζήτηση Μέσω Google

EZ Archive