Sunday - Κυριακή, 24 September - Σεπτέμβριος 2017, 03:14
Καλωσόρισες Guest | RSS

EZAccess Ελληνική Τηλεόραση

Κεντρική Σελίδα » 2014 » October - Οκτώβριος » 3 » ΖΗΤΩ ΤΑ ΤΕΡΑΤΑ: MONSTER ΠΕΙΡΑΜΑ «ΜΕΤΑΓΛΩΤΤΙΣΜΕΝΟ ΣΤΑ ΕΛΛΗΝΙΚΑ» - MONSTER HIGH: FREAKY FUSION (2014) «GREEK AUDIO»
ΖΗΤΩ ΤΑ ΤΕΡΑΤΑ: MONSTER ΠΕΙΡΑΜΑ «ΜΕΤΑΓΛΩΤΤΙΣΜΕΝΟ ΣΤΑ ΕΛΛΗΝΙΚΑ» - MONSTER HIGH: FREAKY FUSION (2014) «GREEK AUDIO»





ΖΗΤΩ ΤΑ ΤΕΡΑΤΑ: MONSTER ΠΕΙΡΑΜΑ «ΜΕΤΑΓΛΩΤΤΙΣΜΕΝΟ ΣΤΑ ΕΛΛΗΝΙΚΑ» - MONSTER HIGH: FREAKY FUSION (2014) «GREEK AUDIO»



Στην προσπάθειά τους να βοηθήσουν την Frankie να ανακαλύψει παραπάνω στοιχεία για τις monster ρίζες της, εκείνη και οι φίλες της θα ταξιδέψουν πίσω στον χρόνο στην πρώτη ημέρα λειτουργίας του Monster High™. Εκεί οι φίλες θα γνωρίσουν τον Sparky έναν μοναχικό έφηβο, με την εμμονή να δημιουργήσει τη δική του μορφή ζωής. Όταν οι φίλες βρουν μια πειραματική πύλη για να γυρίσουν πίσω στο μέλλον, μπερδεύονται μεταξύ τους και δημιουργούν τέσσερα υβριδικά πλάσματα με κοινά χαρακτηριστικά τους μπλεγμένα μεταξύ τους. Τώρα, θα χρειαστεί η μία να συνεργαστεί με την άλλη για να ξεμπερδέψουν τα σώματά τους, αλλά και να αντιμετωπίσουν τις συνέπειες από το ταξίδι και του Sparky στο μέλλον, αφού τις ακολούθησε.











Format : Matroska

Format version : Version 2

File size : 1.10 GiB

Duration : 1h 10mn

Overall bit rate : 2 239 Kbps

Writing application : HandBrake 0.9.9

Writing library : libmkv 0.6.5



Video

ID : 1

Format : AVC

Format/Info : Advanced Video Codec

Format profile : High@L3.0

Format settings, CABAC : Yes

Format settings, ReFrames : 4 frames

Codec ID : V_MPEG4/ISO/AVC

Duration : 1h 10mn

Bit rate : 1 850 Kbps

Width : 720 pixels

Height : 400 pixels

Display aspect ratio : 16:9

Frame rate mode : Constant

Frame rate : 25.000 fps

Color space : YUV

Chroma subsampling : 4:2:0

Bit depth : 8 bits

Scan type : Progressive

Bits/(Pixel*Frame) : 0.257

Stream size : 914 MiB (81%)

Default : Yes

Forced : No

Color primaries : BT.601 PAL

Transfer characteristics : BT.709

Matrix coefficients : BT.601



Audio

ID : 2

Format : AC-3

Format/Info : Audio Coding 3

Mode extension : CM (complete main)

Format settings, Endianness : Big

Codec ID : A_AC3

Duration : 1h 10mn

Bit rate mode : Constant

Bit rate : 384 Kbps

Channel(s) : 6 channels

Channel positions : Front: L C R, Side: L R, LFE

Sampling rate : 48.0 KHz

Bit depth : 16 bits

Compression mode : Lossy

Stream size : 194 MiB (17%)

Language : Greek

Default : Yes

Forced : No



--------------------------------

Κατεβάστε εδώ:

Available to users only

--------------------------------

 

Κατηγορία: ΑΛΛΑ ΚΑΝΑΛΙΑ (ΔΙΑΦΟΡΑ) |
Only registered users can add comments.
[ Registration | Login ]

Σύνδεση / Εγγραφή

Login:
Password:

Φιλικές Σελίδες

Αναζήτηση Σελίδας

Αναζήτηση Μέσω Google

EZ Archive