ΖΟΥΖΟΥΝΙΑ (ΠΑΚΕΤΟ 20 DVD) - 27 September 2013 - Ελληνική Τηλεόραση | Διαδικτυακά Παιχνίδια & Κανάλια
Saturday - Σάββατο, 03 December - Δεκέμβριος 2016, 15:38
Καλωσόρισες Guest | RSS

EZAccess Ελληνική Τηλεόραση

Κεντρική Σελίδα » 2013 » September - Σεπτέμβριος » 27 » ΖΟΥΖΟΥΝΙΑ (ΠΑΚΕΤΟ 20 DVD)
ΖΟΥΖΟΥΝΙΑ (ΠΑΚΕΤΟ 20 DVD)


ΖΟΥΖΟΥΝΙΑ (ΠΑΚΕΤΟ 20 DVD)


 Και ποιος δεν ξέρει Τα ζουζούνια, δεν είναι άλλα από μια μικρή παρέα από φευγάτους μπόμπιρες που μιμούνται τους μεγάλους, και κάνουν αστεία, τραγουδούν, και χορεύουν σαν μεγάλοι, απολαύστε τους σε αυτά τα 20 DVD. Kαλή προβολή.

 Γλώσσα: ΕΛΛΗΝΙΚΑ+ΚΑΡΑΟΚΕ

Αναλυτικά οι ονομασίες
01.Ζουζούνια και άλλα ρεμπέτικα τραγούδια
02.αγια νύχτα
03.ακαντού
04.αννα ρόουζ και αμάντα η μικρή αράχνη
05.αριθμοι
06.αχ κουνελάκι.
07.baba
08.bala bala
09.μπαρμπα μαθιος
10.χριστουγεννα
11.kiki koko
12.κοκινοσκουφιτσα
13.οταν θα πάω κυρά μου στο παζάρι
14.παμε στη θάλασσα
15.σχιματα
16.τα ζουζούνια τραγουδούν για τα ζωάκια
17.τρατα
18.χαρουμενες διακοπές
19.χριστουγεννα ήρθαν πάλι
20.ζουζουνοπαρτι




Ηθοποιοί: ΤΑ ΖΟΥΖΟΥΝΙΑ
Σκηνοθετης: MODERN TIMES
Σεναριογράφος: MODERN TIMES
Είδος ταινίας: ΨΥΧΑΓΩΓΙΚΑ
Χώρα παραγωγής: ΕΛΛΑΣ




Ενδεικτικά:
Format : AVI
Format/Info : Audio Video Interleave
File size : 635 MiB
Duration : 35mn 59s
Overall bit rate : 2 466 Kbps
Writing application : Lavf52.33.0

Video
ID : 0
Format : MPEG-4 Visual
Format profile : Simple@L3
Format settings, BVOP : No
Format settings, QPel : No
Format settings, GMC : No warppoints
Format settings, Matrix : Default (H.263)
Codec ID : XVID
Codec ID/Hint : XviD
Duration : 35mn 59s
Bit rate : 2 007 Kbps
Width : 720 pixels
Height : 558 pixels
Display aspect ratio : 1.290
Frame rate : 25.000 fps
Color space : YUV
Chroma subsampling : 4:2:0
Bit depth : 8 bits
Scan type : Progressive
Bits/(Pixel*Frame) : 0.200
Stream size : 517 MiB (81%)
Writing library : XviD 1.2.1 (UTC 2008-12-04)



Audio
ID : 1
Format : AC-3
Format/Info : Audio Coding 3
Mode extension : CM (complete main)
Codec ID : 2000
Duration : 35mn 59s
Bit rate mode : Constant
Bit rate : 448 Kbps
Channel(s) : 2 channels
Channel positions : Front: L R
Sampling rate : 48.0 KHz
Bit depth : 16 bits
Stream size : 115 MiB (18%)
Alignment : Aligned on interleaves
Interleave, duration : 32 ms (0.80 video frame)
Interleave, preload duration : 32 ms



Κατεβάστε εδώ:

http://turbobit.net/ai2qol22ex9u/ZOYZOYNIA.20.part1.rar.html
http://turbobit.net/f06x49qml6yd/ZOYZOYNIA.20.part2.rar.html
http://turbobit.net/b5qxntb10lg0/ZOYZOYNIA.20.part3.rar.html
http://turbobit.net/rccfmmvui8ly/ZOYZOYNIA.20.part4.rar.html
http://turbobit.net/cc2uqv9sdo1a/ZOYZOYNIA.20.part5.rar.html
http://turbobit.net/sdj7qsj25tu4/ZOYZOYNIA.20.part6.rar.html

Κωδικός αποσυμπίεσης:
thelwseires

Κατηγορία: ΑΛΛΑ ΚΑΝΑΛΙΑ (ΔΙΑΦΟΡΑ) |
Only registered users can add comments.
[ Registration | Login ]

Σύνδεση / Εγγραφή

Login:
Password:

Φιλικές Σελίδες

Αναζήτηση Σελίδας

Αναζήτηση Μέσω Google

EZ Archive