Monday - Δευτέρα, 19 April 2021, 08:12
Καλωσόρισες Guest | RSS

EZAccess Ελληνική Τηλεόραση

Κεντρική Σελίδα » 2012 » November - Νοέμβριος » 5 » 101 ΣΚΥΛΙΑ ΔΑΛΜΑΤΙΑΣ 2: Η ΠΕΡΙΠΕΤΕΙΑ ΤΟΥ ΠΑΤΣΑ - 101 Dalmatians II: Patch's London Adventure «ΜΕΤΑΓΛΩΤΤΙΣΜΕΝΟ ΣΤΑ ΕΛΛΗΝΙΚΑ»
101 ΣΚΥΛΙΑ ΔΑΛΜΑΤΙΑΣ 2: Η ΠΕΡΙΠΕΤΕΙΑ ΤΟΥ ΠΑΤΣΑ - 101 Dalmatians II: Patch's London Adventure «ΜΕΤΑΓΛΩΤΤΙΣΜΕΝΟ ΣΤΑ ΕΛΛΗΝΙΚΑ»


101 ΣΚΥΛΙΑ ΔΑΛΜΑΤΙΑΣ 2: Η ΠΕΡΙΠΕΤΕΙΑ ΤΟΥ ΠΑΤΣΑ - 101 Dalmatians II: Patch's London Adventure «ΜΕΤΑΓΛΩΤΤΙΣΜΕΝΟ ΣΤΑ ΕΛΛΗΝΙΚΑ»


Οι αγαπημένοι τετράποδοι φίλοι της Disney έρχονται και πάλι με μια νέα περιπέτεια,
ΤΑ 101 ΣΚΥΛΙΑ ΤΗΣ ΔΑΛΜΑΤΙΑΣ ΙΙ.

Ο μικρούλης Πάτσα χαμένος μέσα σε μια θάλασσα από βούλες, θέλει να ξεχωρίσε από τα αδέρφια του και ονειρεύεται να μοιάσει στον αγαπημένο του τηλεοπτικό αστέρα, τον Θαντερμπολ και να γίνει "Ο Ένας και Μοναδικός Ήρωας".

Όταν ο Πάτσα χωρίζεται κατά λάθος από τα αδέρφια του, γνωρίζει από κοντά τον αγαπημένο του ήρωα και πολύ γρήγορα βρίσκεται στο πλευρό του να αντιμετωπίζουν μαζί καθημερινές περιπέτειες.

Εν τω μεταξύ, η Κρουέλα ανακαλύπτει έναν εκκεντρικό καλλιτέχνη με τον οποίο μοιράζονται την ίδια τρέλα: τις βούλες! Για να δυναμώσει την πηγή έμπνευσης του απαγάγει όλα τα σκυλάκια. Τώρα ο Πάτσα μαζί με τον Θάντερμπολ πρέπει να βρουν ένα τρόπο να σώσουν τα υπόλοιπα κουτάβια και να κατατροπώσουν την Κρουέλα!



General
Format        : AVI
Format/Info    : Audio Video Interleave
File size    : 677 MiB
Duration      : 1h 10mn
Overall bit rate     : 1 337 Kbps

Video
ID      : 0
Format       : MPEG-4 Visual
Format profile      : Simple@L3
Format settings, BVOP    : No
Format settings, QPel     : No
Format settings, GMC     : No warppoints
Format settings, Matrix : Default (H.263)
Codec ID      : XVID
Codec ID/Hint     : XviD
Duration     : 1h 10mn
Bit rate   : 1 197 Kbps
Width    : 640 pixels
Height  : 360 pixels
Display aspect ratio      : 16:9
Frame rate     : 25.000 fps
Color space  : YUV
Chroma subsampling       : 4:2:0
Bit depth    : 8 bits
Scan type      : Progressive
Bits/(Pixel*Frame)     : 0.208
Stream size     : 606 MiB (90%)
Writing library   : Magic0432

Audio
ID      : 1
Format    : MPEG Audio
Format version      : Version 1
Format profile    : Layer 3
Mode       : Joint stereo
Mode extension     : MS Stereo
Codec ID     : 55
Codec ID/Hint     : MP3
Duration   : 1h 10mn
Bit rate mode    : Constant
Bit rate    : 128 Kbps
Channel(s)      : 2 channels
Sampling rate   : 44.1 KHz
Stream size   : 64.8 MiB (10%)
Alignment    : Aligned on interleaves
Interleave, duration     : 26 ms (0.65 video frame)
Writing library    : LAME3.97

http://4.bp.blogspot.com/_7wsQzULWIwo/SwALMl0nnQI/AAAAAAAACLs/Hm8u1Jqo0YY/s400/download-orig.png

101.Skylakia.2.avi

ή

101.Skylakia.2.avi

Κατηγορία: ΑΛΛΑ ΚΑΝΑΛΙΑ (ΔΙΑΦΟΡΑ) |
Only registered users can add comments.
[ Registration | Login ]

Σύνδεση / Εγγραφή

Login:
Password:

Φιλικές Σελίδες

Αναζήτηση Σελίδας

Αναζήτηση Μέσω Google

EZ Archive