Thursday - Πέμπτη, 21 November 2019, 16:57
Καλωσόρισες Guest | RSS

EZAccess Ελληνική Τηλεόραση

Κεντρική Σελίδα » 2010 » January - Ιανουάριος » 14 » 50 - 50 (ΠΕΝΗΝΤΑ - ΠΕΝΗΝΤΑ) ΤΟ ΜΕΓΑΛΟ ΦΑΓΟΠΟΤΙ - Mega.50-50.To.megalo.fagopoti
50 - 50 (ΠΕΝΗΝΤΑ - ΠΕΝΗΝΤΑ) ΤΟ ΜΕΓΑΛΟ ΦΑΓΟΠΟΤΙ - Mega.50-50.To.megalo.fagopoti
50 - 50 (ΠΕΝΗΝΤΑ - ΠΕΝΗΝΤΑ) ΤΟ ΜΕΓΑΛΟ ΦΑΓΟΠΟΤΙ - Mega.50-50.To.megalo.fagopoti http://ezaccess.at.ua/ 

50 - 50 (ΠΕΝΗΝΤΑ - ΠΕΝΗΝΤΑ) ΤΟ ΜΕΓΑΛΟ ΦΑΓΟΠΟΤΙ - Mega.50-50.To.megalo.fagopoti

3 χρόνια μετά την ολοκλήρωση της σειράς, το τηλεοπτικό κοινό θα απολαύσει τον Νικηφόρο, τον Μίμη, τον Παύλο, την Ελισάβετ, την Ειρήνη & την Ξανθίππη σε μία τηλεταινία, γεμάτη απρόοπτα, κωμικοτραγικές καταστάσεις, ευτράπελα αλλά κυρίως άφθονο γέλιο. Μπορεί να έχουν περάσει 3 χρόνια, όμως, "τίποτα δεν έχει αλλάξει & τίποτα δεν είναι όπως παλιά": Ο Νικηφόρος είναι απαρηγόρητος, γιατί η κόρη του Ναταλία, μαζί με τον Αχιλλέα & τη μικρή εγγονή του έχουν μετοικίσει στην Αμερική. Η Ελισάβετ, αν & του δίνει κάποιο δίκιο, δεν τολμά να το παραδεχτεί μπροστά του. Ο Μίμης, λόγω του εμφράγματος, έχει μπει σε πρόγραμμα λιτότητας, δηλαδή συντηρητική διατροφή & αποχή από το σεξ. Η Ξανθίππη έχει κουραστεί πια να τον επιβλέπει. Ο Παύλος, έχει βρεθεί να ξαναπαίζει το ρόλο του πατέρα. Ζητά τη συμπαράσταση της Ειρήνης που μετά από μία περίοδο τρελής ζωής, το'χει ρίξει στις αγαθοεργίες. Οι 3 φίλοι, απογοητευμένοι απ'όλους κι όλα, πνίγουν τον καημό τους στο τσιπουράδικο του Βασίλη. Εκεί, αποφασίζουν να πάρουν τη ζωή στα χέρια τους & να "σκίσουν τη γάτα". Μια απόφαση με απρόβλεπτη εξέλιξη, που θα τους οδηγήσει όλους στα άκρα & θα τους κάνει να ξεπεράσουν τα όρια...  

Πρωταγωνιστούν: Πέτρος Φιλιππίδης (Νικηφόρος), Παύλος Χαϊκάλης (Μίμης), Σάκης Μπουλάς (Παύλος), 'Αβα Γαλανοπούλου (Ελισάβετ), Βάνα Ραμπότα (Ειρήνη), Μαρία Ανδρούτσου (Ξανθίππη)
Σενάριο: Βασίλης Ρίσβας, Δήμητρα Σακαλή, 'Ελενα Σολωμού
Σκηνοθεσία: Βασίλης Θωμόπουλος
Εκτέλεση παραγωγής: ΑΝΩΣΗ

50 - 50 (ΠΕΝΗΝΤΑ - ΠΕΝΗΝΤΑ) ΤΟ ΜΕΓΑΛΟ ΦΑΓΟΠΟΤΙ - Mega.50-50.To.megalo.fagopoti http://ezaccess.at.ua/

General
Complete name : Mega.50-50.To.megalo.fagopoti.avi
Format : AVI
Format/Info : Audio Video Interleave
File size : 655 MiB
Duration : 1h 17mn
Overall bit rate : 1180 Kbps
Writing application : VirtualDubMod 1.5.4.1 (build 2178/release)
Writing library : Boilsoft AVI tool build 1/release

Video
ID : 0
Format : MPEG-4 Visual
Format profile : Advanced Simple@L5
Format settings, BVOP : Yes
Format settings, QPel : No
Format settings, GMC : No warppoints
Format settings, Matrix : Custom
Codec ID : XVID
Codec ID/Hint : XviD
Duration : 1h 17mn
Bit rate : 1 042 Kbps
http://ezaccess.at.ua/
Width : 576 pixels
Height : 432 pixels
Display aspect ratio : 4:3
Frame rate : 25.000 fps
Resolution : 8 bits
Colorimetry : 4:2:0
Scan type : Progressive
Bits/(Pixel*Frame) : 0.168
Stream size : 579 MiB (88%)
Writing library : XviD 1.2.1 (UTC 2008-12-04)

Audio
ID : 1
Format : MPEG Audio
Format version : Version 1
Format profile : Layer 3
Mode : Joint stereo
Format_Settings_ModeExtension : MS Stereo
Codec ID : 55
Codec ID/Hint : MP3
Duration : 1h 17mn
http://ezaccess.at.ua/
Bit rate mode : Constant
Bit rate : 128 Kbps
Channel(s) : 2 channels
Sampling rate : 48.0 KHz
Stream size : 71.1 MiB (11%)
Alignment : Aligned on interleaves
Interleave, duration : 40 ms (1.00 video frame)
Interleave, preload duration : 504 ms
Writing library : LAME3.98r
Encoding settings : -m j -V 4 -q 2 -lowpass 17 -b 128

Free DownLoad Link Below - Κατεβάστε εδώ:
Κατηγορία: Greek TV (MEGA) |
Only registered users can add comments.
[ Registration | Login ]

Σύνδεση / Εγγραφή

Login:
Password:

Φιλικές Σελίδες

Αναζήτηση Σελίδας

Αναζήτηση Μέσω Google

EZ Archive