Thursday - Πέμπτη, 22 April 2021, 02:56
Καλωσόρισες Guest | RSS

EZAccess Ελληνική Τηλεόραση

Κεντρική Σελίδα » 2013 » November - Νοέμβριος » 23 » 9 ΒΑΣΙΛΙΣΣΕΣ - Nueve Reinas / Nine Queens (2000) «ΕΛΛΗΝΙΚΟΙ ΥΠΟΤΙΤΛΟΙ»
9 ΒΑΣΙΛΙΣΣΕΣ - Nueve Reinas / Nine Queens (2000) «ΕΛΛΗΝΙΚΟΙ ΥΠΟΤΙΤΛΟΙ»


9 ΒΑΣΙΛΙΣΣΕΣ - Nueve Reinas / Nine Queens (2000) «ΕΛΛΗΝΙΚΟΙ ΥΠΟΤΙΤΛΟΙ»


Πρωτότυπος  τίτλος:     Nueve reinas
Αγγλικός τίτλος:     Nine Queens
Ελληνική απόδοση:     9 Βασίλισσες
Σενάριο-Σκηνοθεσία:     Fabian Bielinsky
Ηθοποιοί:     Ricardo Darin, Gaston Pauls, Leticia Bredice, Ignasi Abadal, Oscar Nunez κ.α.
Είδος:     Crime | Drama | Thriller
Πρώτη  Προβολή:     31 August 2000 (Argentina)
Ετος Παραγωγής:     2000 (Argentina)
Γλώσσα:     Ισπανικά
Διάρκεια:     114min

Υπόθεση:
Ο έμπειρος μικροαπατεώνας Marcos (Ricardo Darin) συναντάει σε ένα μίνι μάρκετ του Μπουένος Αιρες τον νεαρό "συνάδελφό" του Juan (Gaston Pauls). Αναγνωρίζοντας ότι ο Juan διαθέτει μεγάλο ταλέντο αλλά μικρή εμπειρία στο χώρο, του προτείνει να περάσουν την υπόλοιπη μέρα μαζί ανταλλάσοντας "επαγγελματικά" κόλπα. Όταν ξαφνικά παρουσιάζεται η ευκαιρία για τη μεγάλη κομπίνα αποφασίζουν να συνεργαστούν. Έχουν μια μόλις μέρα για να πουλήσουν εννιά πλαστά γραμματόσημα, τις σπάνιες Εννιά Βασίλισσες, σε έναν εκατομμυριούχο συλλέκτη.

Τα πράγματα όμως περιπλέκονται όταν τα πλαστά γραμματόσημα καταστρέφονται και όταν στο προσκήνιο μπαίνει η αδερφή του Marcos, Valeria (Leticia Bredice) με την οποία διατηρεί πολύ κακές σχέσεις λόγω κληρονομικών διαφορών. Η Valeria διευθύνει το ξενοδοχείο στο οποίο διαμένει ο υποψήφιος αγοραστής και δεν είναι διατεθειμένη να αφήσει δυο απατεώνες να εξαπατήσουν έναν πελάτη της. Τίποτα όμως στην υπόθεση δεν είναι όπως φαίνεται και η μια ανατροπή ακολουθεί την άλλη.





General
Complete name                            : \Nueve Reinas.mkv
Format                                   : Matroska
Format version                           : Version 2
File size                                : 1.37 GiB
Duration                                 : 1h 49mn
Overall bit rate                         : 1 796 Kbps
Writing application                      : HandBrake 0.9.9
Writing library                          : libmkv 0.6.5

Video
ID                                       : 1
Format                                   : AVC
Format/Info                              : Advanced Video Codec
Format profile                           : High@L3.1
Format settings, CABAC                   : Yes
Format settings, ReFrames                : 4 frames
Codec ID                                 : V_MPEG4/ISO/AVC
Duration                                 : 1h 49mn
Bit rate                                 : 1 530 Kbps
Width                                    : 720 pixels
Height                                   : 384 pixels
Display aspect ratio                     : 1.85:1
Frame rate mode                          : Constant
Frame rate                               : 25.000 fps
Color space                              : YUV
Chroma subsampling                       : 4:2:0
Bit depth                                : 8 bits
Scan type                                : Progressive
Bits/(Pixel*Frame)                       : 0.221
Stream size                              : 1.15 GiB (84%)
Writing library                          : x264 core 130 r2273 b3065e6

Audio
ID                                       : 2
Format                                   : AC-3
Format/Info                              : Audio Coding 3
Mode extension                           : CM (complete main)
Format settings, Endianness              : Big
Codec ID                                 : A_AC3
Duration                                 : 1h 49mn
Bit rate mode                            : Constant
Bit rate                                 : 256 Kbps
Channel(s)                               : 2 channels
Channel positions                        : Front: L R
Sampling rate                            : 48.0 KHz
Bit depth                                : 16 bits
Compression mode                         : Lossy
Stream size                              : 201 MiB (14%)
Language                                 : Spanish
Default                                  : Yes
Forced                                   : No

Text
ID                                       : 3
Format                                   : VobSub
Codec ID                                 : S_VOBSUB
Codec ID/Info                            : The same subtitle format used on DVDs
Language                                 : English
Default                                  : No
Forced                                   : No



Κατεβάστε εδώ:
9VASILISES2000.rar

Κωδικός αποσυμπίεσης των αρχείων rar:
thelwseires

Κατηγορία: ΑΛΛΑ ΚΑΝΑΛΙΑ (ΔΙΑΦΟΡΑ) |
Only registered users can add comments.
[ Registration | Login ]

Σύνδεση / Εγγραφή

Login:
Password:

Φιλικές Σελίδες

Αναζήτηση Σελίδας

Αναζήτηση Μέσω Google

EZ Archive