Thursday - Πέμπτη, 15 April 2021, 20:17
Καλωσόρισες Guest | RSS

EZAccess Ελληνική Τηλεόραση

Κεντρική Σελίδα » 2013 » June - Ιούνιος » 22 » ΑΛΑΝΤΙΝ «ΜΕΤΑΓΛΩΤΤΙΣΜΕΝΟ ΣΤΑ ΕΛΛΗΝΙΚΑ» - Aladdin (1992) BDRip 720p XViD AC3 «GREEK AUDIO»
ΑΛΑΝΤΙΝ «ΜΕΤΑΓΛΩΤΤΙΣΜΕΝΟ ΣΤΑ ΕΛΛΗΝΙΚΑ» - Aladdin (1992) BDRip 720p XViD AC3 «GREEK AUDIO»


ΑΛΑΝΤΙΝ «ΜΕΤΑΓΛΩΤΤΙΣΜΕΝΟ ΣΤΑ ΕΛΛΗΝΙΚΑ» - Aladdin (1992) BDRip 720p XViD AC3 «GREEK AUDIO»


Σκηνοθεσία: Ron Clements, John Musker.
Ελληνική Μεταγλώττιση :Χρήστος Στασινόπουλος (Αλαντίν), Κατερίνα Γιαμαλή (Γιασμίν), Ζανό Ντάνιας (Τζίνι), Νίκος Πόγκας (Τζαφάρ), Σπύρος Μπιμπίλας (Ιάγκο), Σπύρος Κωνσταντόπουλος (Σουλτάνος).

Στα βάθη της μαγευτικής πόλης της Ασίας ένας αλητάκος με το όνομα Αλαντίν και η πονηρή μαϊμού του, ο Αμπού, παλεύουν να σώσουν την πριγκίπισσα Γιασμίν. Η ζωή του Αλαντίν αλλάζει όταν εντελώς τυχαία τρίβει ένα παλιό λυχνάρι απ’ όπου ελευθερώνεται ένα γλυκύτατο Τζίνι, το οποίο υπακούοντας τις εντολές του νέου αφεντικού, τον μετατρέπει σε πρίγκιπα. Αλλά ο Τζαφάρ και ο δολοπλόκος παπαγάλος του, ο Ιάγος, θέλουν να κλέψουν το λυχνάρι και τις δυνάμεις που αυτό κρύβει. Ο Αλαντίν τώρα για να μπορέσει να τους νικήσει και να κερδίσει την καρδιά της Γιασμίν, πρέπει να αποδείξει ότι είναι πρίγκιπας εκεί που μετράει περισσότερο στην καρδιά!







Source : Aladdin (1992) Blu-ray Disc [EUR] -PCH

General
Format                                   : AVI
Format/Info                              : Audio Video Interleave
Format profile                           : OpenDML
File size                                : 2.63 GiB
Duration                                 : 1h 30mn
Overall bit rate                         : 4 149 Kbps
Writing application                      : VirtualDubMod 1.5.10.2 (build 2540/release)
Writing library                          : VirtualDubMod build 2540/release
Video
ID                                       : 0
Format                                   : MPEG-4 Visual
Format profile                           : Advanced Simple@L5
Format settings, BVOP                    : 2
Format settings, QPel                    : No
Format settings, GMC                     : No warppoints
Format settings, Matrix                  : Default (H.263)
Muxing mode                              : Packed bitstream
Codec ID                                 : XVID
Codec ID/Hint                            : XviD
Duration                                 : 1h 30mn
Bit rate                                 : 3 690 Kbps
Width                                    : 1 280 pixels
Height                                   : 688 pixels
Display aspect ratio                     : 1.85:1
Frame rate                               : 23.976 fps
Color space                              : YUV
Chroma subsampling                       : 4:2:0
Bit depth                                : 8 bits
Scan type                                : Progressive
Compression mode                         : Lossy
Bits/(Pixel*Frame)                       : 0.175
Stream size                              : 2.34 GiB (89%)
Writing library                          : XviD 1.2.1 (UTC 2008-12-04)
Audio
ID                                       : 1
Format                                   : AC-3
Format/Info                              : Audio Coding 3
Mode extension                           : CM (complete main)
Format settings, Endianness              : Big
Codec ID                                 : 2000
Duration                                 : 1h 30mn
Bit rate mode                            : Constant
Bit rate                                 : 448 Kbps
Channel(s)                               : 6 channels
Channel positions                        : Front: L C R, Side: L R, LFE
Sampling rate                            : 48.0 KHz
Bit depth                                : 16 bits
Compression mode                         : Lossy
Stream size                              : 291 MiB (11%)
Alignment                                : Split accross interleaves
Interleave, duration                     : 42 ms (1.00 video frame)
Interleave, preload duration             : 500 ms



Κατηγορία: ΑΛΛΑ ΚΑΝΑΛΙΑ (ΔΙΑΦΟΡΑ) |
Only registered users can add comments.
[ Registration | Login ]

Σύνδεση / Εγγραφή

Login:
Password:

Φιλικές Σελίδες

Αναζήτηση Σελίδας

Αναζήτηση Μέσω Google

EZ Archive