Saturday - Σάββατο, 17 April 2021, 22:29
Καλωσόρισες Guest | RSS

EZAccess Ελληνική Τηλεόραση

Κεντρική Σελίδα » 2013 » September - Σεπτέμβριος » 13 » ΑΠΕΝΤΑΡΟΣ ΕΚΑΤΟΜΜΥΡΙΟΥΧΟΣ - POUIC POUIC (1963) «ΕΝΣΩΜΑΤΩΜΕΝΟΙ ΕΛΛΗΝΙΚΟΙ ΥΠΟΤΙΤΛΟΙ»
ΑΠΕΝΤΑΡΟΣ ΕΚΑΤΟΜΜΥΡΙΟΥΧΟΣ - POUIC POUIC (1963) «ΕΝΣΩΜΑΤΩΜΕΝΟΙ ΕΛΛΗΝΙΚΟΙ ΥΠΟΤΙΤΛΟΙ»


ΑΠΕΝΤΑΡΟΣ ΕΚΑΤΟΜΜΥΡΙΟΥΧΟΣ - POUIC POUIC (1963) «ΕΝΣΩΜΑΤΩΜΕΝΟΙ ΕΛΛΗΝΙΚΟΙ ΥΠΟΤΙΤΛΟΙ»


Η Πατρίσια (Mireille Darc) προσπαθεί να ξεφορτωθεί έναν πλούσιο, αλλά ενοχλητικό ερωτευμένο και προσλαμβάνει τον Σιμόν Γκιλμπό (Philippe Nicaud) να παίξει το σύζυγό της. Δεν έχει υπολογίσει όμως την αφελή μητέρα της και τον απελπισμένο αλλά ευφυέστατο πατέρα (Louis de Funès) που θέλουν να πασάρουν έναν τίτλο ιδιοκτησίας για ένα οικόπεδο στη Βενεζουέλα ακριβώς σε αυτόν τον ερωτευμένο επιχειρηματία.

Είδος ταινίας: Κωμωδία
Σκηνοθεσία: Jean Girault
Σενάριο: Jean Girault, Jacques Vilfrid
Πρωταγωνιστούν: Louis de Funès, Mireille Darc, Roger Dumas
Γλώσσα: Γαλλικά
Πρεμιέρα (Γαλλία): 20-11-1963
Χώρα παραγωγής: Γαλλία



Format : AVI
Format/Info : Audio Video Interleave
File size : 982 MiB
Duration : 1h 23mn
Overall bit rate : 1 644 Kbps

Video Info
ID : 0
Format : MPEG-4 Visual
Format profile : Simple@L3
Format settings, BVOP : No
Format settings, QPel : No
Format settings, GMC : No warppoints
Format settings, Matrix : Default (H.263)
Codec ID : XVID
Codec ID/Hint : XviD
Duration : 1h 23mn
Bit rate : 1 498 Kbps
Width : 1 024 pixels
Height : 576 pixels
Display aspect ratio : 16:9
Frame rate : 25.000 fps
Color space : YUV
Chroma subsampling : 4:2:0
Bit depth : 8 bits
Scan type : Progressive
Compression mode : Lossy
Bits/(Pixel*Frame) : 0.102
Stream size : 896 MiB (91%)
Writing library : XviD 1.2.1 (UTC 2008-12-04)



Audio Info
ID : 1
Format : MPEG Audio
Format version : Version 1
Format profile : Layer 3
Mode : Joint stereo
Mode extension : MS Stereo
Codec ID : 55
Codec ID/Hint : MP3
Duration : 1h 23mn
Bit rate mode : Constant
Bit rate : 128 Kbps
Channel(s) : 2 channels
Sampling rate : 48.0 KHz
Compression mode : Lossy
Stream size : 76.5 MiB (8%)
Alignment : Aligned on interleaves
Interleave, duration : 24 ms (0.60 video frame)
Writing library : LAME3.98.2



Κατεβάστε εδώ:

Apentaros.Ekatomiriouxos.avi

Κατηγορία: ΑΛΛΑ ΚΑΝΑΛΙΑ (ΔΙΑΦΟΡΑ) |
Only registered users can add comments.
[ Registration | Login ]

Σύνδεση / Εγγραφή

Login:
Password:

Φιλικές Σελίδες

Αναζήτηση Σελίδας

Αναζήτηση Μέσω Google

EZ Archive