Friday - Παρασκευή, 05 June 2020, 05:28
Καλωσόρισες Guest | RSS

EZAccess Ελληνική Τηλεόραση

Κεντρική Σελίδα » 2010 » February - Φεβρουάριος » 6 » *ΑΠΟΚΛΕΙΣΤΙΚΟ* ΚΑΦΕΣ ΜΕ ΤΗΝ ΕΛΕΝΗ - Alpha - ΤΣΙΚΝΟΠΕΜΠΤΗ - ΧΟΛΙΔΗΣ - LIVE - EZAccess.at.ua
*ΑΠΟΚΛΕΙΣΤΙΚΟ* ΚΑΦΕΣ ΜΕ ΤΗΝ ΕΛΕΝΗ - Alpha - ΤΣΙΚΝΟΠΕΜΠΤΗ - ΧΟΛΙΔΗΣ - LIVE - EZAccess.at.ua
ΚΑΦΕΣ ΜΕ ΤΗΝ ΕΛΕΝΗ - Alpha - ΤΣΙΚΝΟΠΕΜΠΤΗ - ΧΟΛΙΔΗΣ - LIVE - EZAccess.at.ua


"ΠΡΩΙΝΟΣ" ΚΑΦΕΣ ΜΕ ΤΗΝ ΕΛΕΝΗ - Alpha - ΤΣΙΚΝΟΠΕΜΠΤΗ - ΧΟΛΙΔΗΣ - LIVE ΕΜΦΑΝΙΣΗ - EZAccess.at.ua

Ο αγαπημένος τραγουδιστής στη πρωινή εκομπή της Ελένης Μενεγάκης την Τσικνοπέμπτη 04/02/2010.

General
Complete name : ΚΑΦΕΣ ΜΕ ΤΗΝ ΕΛΕΝΗ - ΤΣΙΚΝΟΠΕΜΠΤΗ - ΧΟΛΙΔΗΣ - LIVE - EZAccess.at.ua.avi
Format : AVI
Format/Info : Audio Video Interleave
File size : 247 MiB
Duration : 20mn 59s
Overall bit rate : 1 644 Kbps

Video
ID : 0
Format : MPEG-4 Visual
Format profile : Simple@L3
Format settings, BVOP : Yes
Format settings, QPel : No
Format settings, GMC : No warppoints
Format settings, Matrix : Default (H.263)
Codec ID : XVID
Codec ID/Hint : XviD
Duration : 20mn 59s
Bit rate : 1 504 Kbps
Width : 512 pixels
Height : 384 pixels
Display aspect ratio : 4:3
Frame rate : 25.000 fps
Resolution : 8 bits
Scan type : Progressive
Bits/(Pixel*Frame) : 0.306
Stream size : 226 MiB (91%)

Audio
ID : 1
Format : MPEG Audio
Format version : Version 1
Format profile : Layer 3
Mode : Joint stereo
Format_Settings_ModeExtension : MS Stereo
Codec ID : 55
Codec ID/Hint : MP3
Duration : 20mn 58s
Bit rate mode : Constant
Bit rate : 128 Kbps
Channel(s) : 2 channels
Sampling rate : 44.1 KHz
Stream size : 19.2 MiB (8%)
Alignment : Aligned on interleaves
Interleave, duration : 26 ms (0.65 video frame)
Writing library : LAME3.97

Free DownLoad Links Below - Κατεβάστε εδώ:

http://rapidshare.com/files/346642753/KAF3S_3L3NH_TS1KN0P3MPTH_X0L1D1S_L1V3_EZAccess.at.ua.part1.rar
http://rapidshare.com/files/346648266/KAF3S_3L3NH_TS1KN0P3MPTH_X0L1D1S_L1V3_EZAccess.at.ua.part2.rar
http://rapidshare.com/files/346651653/KAF3S_3L3NH_TS1KN0P3MPTH_X0L1D1S_L1V3_EZAccess.at.ua.part3.rar

Κατηγορία: Greek TV (ALPHA) |
Only registered users can add comments.
[ Registration | Login ]

Σύνδεση / Εγγραφή

Login:
Password:

Φιλικές Σελίδες

Αναζήτηση Σελίδας

Αναζήτηση Μέσω Google

EZ Archive