Tuesday - Τρίτη, 19 November 2019, 10:39
Καλωσόρισες Guest | RSS

EZAccess Ελληνική Τηλεόραση

Κεντρική Σελίδα » 2010 » January - Ιανουάριος » 23 » *ΑΠΟΚΛΕΙΣΤΙΚΟ* ΝΕΡΑΪΔΟΠΕΡΙΠΕΤΕΙΕΣ: Η ΚΗΔΕΙΑ ΤΟΥ ΡΑΒΔΙΟΥ - A KIND OF MAGIC: The Wand's Burial (ΜΕΤΑΓΛΩΤΤΙΣΜΕΝΟ ΣΤΑ ΕΛΛΗΝΙΚΑ) (ΠΡΙΣΜΑ+)
*ΑΠΟΚΛΕΙΣΤΙΚΟ* ΝΕΡΑΪΔΟΠΕΡΙΠΕΤΕΙΕΣ: Η ΚΗΔΕΙΑ ΤΟΥ ΡΑΒΔΙΟΥ - A KIND OF MAGIC: The Wand's Burial (ΜΕΤΑΓΛΩΤΤΙΣΜΕΝΟ ΣΤΑ ΕΛΛΗΝΙΚΑ) (ΠΡΙΣΜΑ+)
ΝΕΡΑΪΔΟΠΕΡΙΠΕΤΕΙΕΣ A KIND OF MAGIC ΠΡΙΣΜΑ+

ΝΕΡΑΪΔΟΠΕΡΙΠΕΤΕΙΕΣ: Η ΚΗΔΕΙΑ ΤΟΥ ΡΑΒΔΙΟΥ (ΠΡΙΣΜΑ+)
A KIND OF MAGIC: The Wand's Burial
(ΜΕΤΑΓΛΩΤΙΣΜΕΝΟ ΣΤΑ ΕΛΛΗΝΙΚΑ)


Παραγωγή: Γαλλίας
Σκηνοθέτης: Τσαρλς Βοσέλ
Δημιουργία: Μισέλ Κουλόν

Στη νεραϊδοχώρα δεν επιτρέπεται μια νεράιδα να παντρεύεται ένα τέρας. Όταν όμως αυτό συνέβη, ολόκληρη η νεραϊδοοικογένεια αναγκάστηκε να μεταναστεύσει στον πλανήτη Γη. Από εκεί κι έπειτα ξεκινά μια απίστευτη ιστορία προσαρμογής όλων των μελών αυτής της περίεργης οικογένειας σ’ έναν τρόπο ζωής, που δεν υπάρχει χώρος για λίγη μαγεία.

*ΑΠΟΚΛΕΙΣΤΙΚΟ* ΝΕΡΑΪΔΟΠΕΡΙΠΕΤΕΙΕΣ: Η ΚΗΔΕΙΑ ΤΟΥ ΡΑΒΔΙΟΥ - A KIND OF MAGIC: The Wand's Burial (ΜΕΤΑΓΛΩΤΤΙΣΜΕΝΟ ΣΤΑ ΕΛΛΗΝΙΚΑ) (ΠΡΙΣΜΑ+) http://ezaccess.at.ua/

General
Complete name : A KIND OF MAGIC - The Wand's Burial.avi
Format : AVI
Format/Info : Audio Video Interleave
File size : 268 MiB
Duration : 22mn 49s
Overall bit rate : 1 640 Kbps

Video
ID : 0
Format : MPEG-4 Visual
Format profile : Simple@L3
Format settings, BVOP : Yes
Format settings, QPel : No
Format settings, GMC : No warppoints
Format settings, Matrix : Default (H.263)
Codec ID : XVID
Codec ID/Hint : XviD
Duration : 22mn 49s
Bit rate : 1500 Kbps
Width : 512 pixels
Height : 384 pixels
Display aspect ratio : 4:3
Frame rate : 25.000 fps
Resolution : 8 bits
Scan type : Progressive
Bits/(Pixel*Frame) : 0.305
Stream size : 245 MiB (91%)

Audio
ID : 1
Format : MPEG Audio
Format version : Version 1
Format profile : Layer 3
Mode : Joint stereo
Format_Settings_ModeExtension : MS Stereo
Codec ID : 55
Codec ID/Hint : MP3
Duration : 22mn 48s
Bit rate mode : Constant
Bit rate : 128 Kbps
Channel(s) : 2 channels
Sampling rate : 44.1 KHz
Stream size : 20.9 MiB (8%)
Alignment : Aligned on interleaves
Interleave, duration : 26 ms (0.65 video frame)
Interleave, preload duration : 470 ms
Writing library : LAME3.97


Κατεβάστε εδώ:


Storage.to - Μέρος 1

Storage.to - Μέρος 2


ή

HotFile.com - Μέρος 1

HotFile.com - Μέρος 2


ή

RapidShare.com - Μέρος 1

Κατηγορία: Greek TV (ΠΡΙΣΜΑ+) |
Only registered users can add comments.
[ Registration | Login ]

Σύνδεση / Εγγραφή

Login:
Password:

Φιλικές Σελίδες

Αναζήτηση Σελίδας

Αναζήτηση Μέσω Google

EZ Archive