Monday - Δευτέρα, 18 November 2019, 14:09
Καλωσόρισες Guest | RSS

EZAccess Ελληνική Τηλεόραση

Κεντρική Σελίδα » 2010 » January - Ιανουάριος » 23 » *ΑΠΟΚΛΕΙΣΤΙΚΟ* ΤΙΤΕΦ: ΡΟΜΑΝΤΙΚΟ ΣΑΒΒΑΤΟΚΥΡΙΑΚΟ - TITEUF: Romantic Weekend (ΜΕΤΑΓΛΩΤΤΙΣΜΕΝΟ ΣΤΑ ΕΛΛΗΝΙΚΑ) (ΠΡΙΣΜΑ+)
*ΑΠΟΚΛΕΙΣΤΙΚΟ* ΤΙΤΕΦ: ΡΟΜΑΝΤΙΚΟ ΣΑΒΒΑΤΟΚΥΡΙΑΚΟ - TITEUF: Romantic Weekend (ΜΕΤΑΓΛΩΤΤΙΣΜΕΝΟ ΣΤΑ ΕΛΛΗΝΙΚΑ) (ΠΡΙΣΜΑ+)
ΑΠΟΚΛΕΙΣΤΙΚΟ ΤΙΤΕΦ TITEUF ΜΕΤΑΓΛΩΤΤΙΣΜΕΝΟ ΣΤΑ ΕΛΛΗΝΙΚΑ ΠΡΙΣΜΑ+

 ΤΙΤΕΦ: ΡΟΜΑΝΤΙΚΟ ΣΑΒΒΑΤΟΚΥΡΙΑΚΟ (ΠΡΙΣΜΑ+)
TITEUF: Romantic Weekend
(ΜΕΤΑΓΛΩΤΙΣΜΕΝΟ ΣΤΑ ΕΛΛΗΝΙΚΑ)


Παραγωγή: Γαλλίας
Σκηνοθέτης: Prakash Topsy

Περίεργος, σκανταλιάρης, καμιά φορά θρασύς και παρορμητικός αλλά σίγουρα με ιδιαίτερη προσωπικότητα!
Ο Τιτέφ είναι ο ήρωας κάθε παιδιού, ψάχνει διαρκώς για απαντήσεις στα ερωτήματα που απασχολούν όλα τα παιδιά.
Δυστυχώς, ορισμένες φορές ο Τιτέφ βγάζει πολύ σύντομα συμπεράσματα & μπλέκει τον εαυτό του αλλά & τους φίλους του, τον Μανού, τον Χιούγκο & τον Φρανκ σε μπελάδες!

*ΑΠΟΚΛΕΙΣΤΙΚΟ* ΤΙΤΕΦ: ΡΟΜΑΝΤΙΚΟ ΣΑΒΒΑΤΟΚΥΡΙΑΚΟ - TITEUF: Romantic Weekend (ΜΕΤΑΓΛΩΤΤΙΣΜΕΝΟ ΣΤΑ ΕΛΛΗΝΙΚΑ) (ΠΡΙΣΜΑ+)

General
Complete name : TITEUF - Romantic Weekend.avi
Format : AVI
Format/Info : Audio Video Interleave
File size : 95.8 MiB
Duration : 8mn 7s
Overall bit rate : 1 650 Kbps

Video
ID : 0
Format : MPEG-4 Visual
Format profile : Simple@L3
Format settings, BVOP : Yes
Format settings, QPel : No
Format settings, GMC : No warppoints
Format settings, Matrix : Default (H.263)
Codec ID : XVID
Codec ID/Hint : XviD
Duration : 8mn 7s
Bit rate : 1 510 Kbps
Width : 512 pixels
Height : 384 pixels
Display aspect ratio : 4:3
Frame rate : 25.000 fps
Resolution : 8 bits
Scan type : Progressive
Bits/(Pixel*Frame) : 0.307
Stream size : 87.7 MiB (91%)

Audio
ID : 1
Format : MPEG Audio
Format version : Version 1
Format profile : Layer 3
Mode : Joint stereo
Format_Settings_ModeExtension : MS Stereo
Codec ID : 55
Codec ID/Hint : MP3
Duration : 8mn 7s
Bit rate mode : Constant
Bit rate : 128 Kbps
Channel(s) : 2 channels
Sampling rate : 44.1 KHz
Stream size : 7.43 MiB (8%)
Alignment : Aligned on interleaves
Interleave, duration : 26 ms (0.65 video frame)
Interleave, preload duration : 417 ms
Writing library : LAME3.97


Κατεβάστε εδώ:


DownLoad

ή

Mirror


ή

Mirror

Κατηγορία: Greek TV (ΠΡΙΣΜΑ+) |
Only registered users can add comments.
[ Registration | Login ]

Σύνδεση / Εγγραφή

Login:
Password:

Φιλικές Σελίδες

Αναζήτηση Σελίδας

Αναζήτηση Μέσω Google

EZ Archive