Tuesday - Τρίτη, 13 April 2021, 22:49
Καλωσόρισες Guest | RSS

EZAccess Ελληνική Τηλεόραση

Κεντρική Σελίδα » 2014 » April - Απρίλιος » 3 » ASTRO BOY (2009) «ΜΕΤΑΓΛΩΤΤΙΣΜΕΝΟ ΣΤΑ ΕΛΛΗΝΙΚΑ» - ASTRO BOY «GREEK AUDIO»
ASTRO BOY (2009) «ΜΕΤΑΓΛΩΤΤΙΣΜΕΝΟ ΣΤΑ ΕΛΛΗΝΙΚΑ» - ASTRO BOY «GREEK AUDIO»


ASTRO BOY (2009) «ΜΕΤΑΓΛΩΤΤΙΣΜΕΝΟ ΣΤΑ ΕΛΛΗΝΙΚΑ» - ASTRO BOY «GREEK AUDIO»

Έτος παραγωγής: 2009
Είδος ταινίας: Κινούμενα Σχέδια, Παιδικά.
Γλώσσα ομιλίας: Ελληνικά (Μεταγλωτισμένο).
Διάρκεια ταινίας: 1 ώρα & 29 λεπτά.
Σκηνοθεσία:  David Bowers.
Ηθοποιοί (Μεταγλώτιση): Σωκράτης Ντούνης, Ιφιγένεια Στάικου, Ανδρέας Ευαγγελάτος, Κώστας Τσάκωνας, Άντρια Ράπτη και Ηλίας Ζερβός.

Υπόθεση: Σε μια φανταστική πόλη, στην Μέτρο Σίτι, ο επιστήμονας Τένμα, με την φωνή του Νικόλας Κέιτζ, κατασκευάζει ένα εκπληκτικό ρομπότ, προικισμένο με κρυφά ταλέντα που δεν έχουν σχέση με οτιδήποτε έχετε δει στο παρελθόν. Ο astroboy, με την φωνή του Φρέντι Χάιμορ, έχει σούπερ δυνάμεις, υπέρυθρη όραση, απίστευτη ταχύτητα και την ικανότητα να πετάει. Αλλά όμως αυτό που θέλει πραγματικά να μάθει είναι τον λόγο της ύπαρξης του. Όταν ο κόσμος θα χρειαστεί έναν σωτήρα, όλες του οι ερωτήσεις θα απαντηθούν. Με τις φωνές ενός πρωτοκλασάτου καστ ηθοποιών, το ΑSTRΟ ΒΟΥ είναι μια περιπέτεια που θα σας εκτοξεύσει σε νέα επίπεδα διασκέδασης.






General
Format                           : AVI
Format/Info                      : Audio Video Interleave
File size                        : 1.03 GiB
Duration                         : 1h 29mn
Overall bit rate                 : 1 642 Kbps

Video
ID                               : 0
Format                           : MPEG-4 Visual
Format profile                   : Advanced Simple@L5
Format settings, BVOP            : 2
Format settings, QPel            : No
Format settings, GMC             : No warppoints
Format settings, Matrix          : Default (H.263)
Codec ID                         : XVID
Codec ID/Hint                    : XviD
Duration                         : 1h 29mn
Bit rate                         : 1 410 Kbps
Width                            : 720 pixels
Height                           : 304 pixels
Display aspect ratio             : 2.35:1
Frame rate                       : 25.000 fps
Color space                      : YUV
Chroma subsampling               : 4:2:0
Bit depth                        : 8 bits
Scan type                        : Progressive
Compression mode                 : Lossy
Bits/(Pixel*Frame)               : 0.258
Stream size                      : 907 MiB (86%)
Writing library                  : XviD 1.2.1 (UTC 2008-12-04)

Audio
ID                               : 1
Format                           : AC-3
Format/Info                      : Audio Coding 3
Mode extension                   : CM (complete main)
Codec ID                         : 2000
Duration                         : 1h 29mn
Bit rate mode                    : Constant
Bit rate                         : 224 Kbps
Channel(s)                       : 2 channels
Channel positions                : Front: L R
Sampling rate                    : 48.0 KHz
Bit depth                        : 16 bits
Compression mode                 : Lossy
Stream size                      : 144 MiB (14%)
Alignment                        : Aligned on interleaves
Interleave, duration             : 64 ms (1.60 video frames)
Interleave, preload duration     : 192 ms


Κατεβάστε εδώ:
agoriasteria2009.avi
Κατηγορία: ΑΛΛΑ ΚΑΝΑΛΙΑ (ΔΙΑΦΟΡΑ) |
Only registered users can add comments.
[ Registration | Login ]

Σύνδεση / Εγγραφή

Login:
Password:

Φιλικές Σελίδες

Αναζήτηση Σελίδας

Αναζήτηση Μέσω Google

EZ Archive