Monday - Δευτέρα, 19 April 2021, 17:00
Καλωσόρισες Guest | RSS

EZAccess Ελληνική Τηλεόραση

Κεντρική Σελίδα » 2013 » August - Αύγουστος » 24 » BBC: The Nazis and the 'Final Solution' (2005) TV Mini-Series BDRip «ΕΛΛΗΝΙΚΟΙ ΥΠΟΤΙΤΛΟΙ»
BBC: The Nazis and the 'Final Solution' (2005) TV Mini-Series BDRip «ΕΛΛΗΝΙΚΟΙ ΥΠΟΤΙΤΛΟΙ»


 BBC: The Nazis and the 'Final Solution' (2005) TV Mini-Series BDRip «ΕΛΛΗΝΙΚΟΙ ΥΠΟΤΙΤΛΟΙ»

Αναπαράσταση όσων συνέβησαν στο στρατόπεδο στο οποίο βασανίστηκαν και βρήκαν το θάνατο χιλιάδες Εβραίοι, κομουνιστές, ομοφυλόφιλοι, τσιγγάνοι και αντιφρονούντες προς το καθεστώς των ναζί, μέσα από μαρτυρίες, υλικό αρχείου και 3-D animation.

Ντοκιμαντέρ 2005, Μεγάλη Βρετανία, Έγχρωμη, Διάρκεια: 280'

Yπότιτλοι:
ΕΛΛΗΝΙΚΟΙ ΕΞΩΤΕΡΙΚΟΙ
ΣΚΗΝΟΘΕΣΙΑ:
Λόρενς Ρις
Εταιρεία Παραγωγής:
BBC
Εταιρεία Διανομής:
Προοπτική
Αριθμός Επεισοδίων:
6
Ηθοποιοί:
Samuel West, Linda Ellerbee, Gert Heidenreich




Format : AVI
Format/Info : Audio Video Interleave
File size : 700 MiB
Duration : 47mn 22s
Overall bit rate : 2 067 Kbps
Writing application : VirtualDubMod 1.5.4.1 (build 2178/release)
Writing library : VirtualDubMod build 2178/release

Video
ID : 0
Format : MPEG-4 Visual
Format profile : Advanced Simple@L5
Format settings, BVOP : 1
Format settings, QPel : No
Format settings, GMC : No warppoints
Format settings, Matrix : Custom
Codec ID : XVID
Codec ID/Hint : XviD
Duration : 47mn 22s
Bit rate : 1 836 Kbps
Width : 720 pixels
Height : 400 pixels
Display aspect ratio : 16:9
Frame rate : 25.000 fps
Color space : YUV
Chroma subsampling : 4:2:0
Bit depth : 8 bits
Scan type : Progressive
Compression mode : Lossy
Bits/(Pixel*Frame) : 0.255
Stream size : 622 MiB (89%)
Writing library : XviD 1.2.0SMP (UTC 2006-01-08)

Audio
ID : 1
Format : AC-3
Format/Info : Audio Coding 3
Format profile : Dolby Digital
Mode extension : CM (complete main)
Format settings, Endianness : Big
Codec ID : 2000
Duration : 47mn 22s
Bit rate mode : Constant
Bit rate : 224 Kbps
Channel(s) : 2 channels
Channel positions : Front: L R
Sampling rate : 48.0 KHz
Bit depth : 16 bits
Compression mode : Lossy
Stream size : 75.9 MiB (11%)
Alignment : Split accross interleaves
Interleave, duration : 96 ms (2.40 video frames)
Interleave, preload duration : 96 ms
Language : English
Yπότιτλοι: ΕΛΛΗΝΙΚΟΙ ΕΞΩΤΕΡΙΚΟΙ

Κατεβάστε εδώ:

http://turbobit.net/j8myk9hl34q9/MPIMPISI-H.TELIKH.LUSH.2005.part1.rar.html
http://turbobit.net/q6inq1pb96jf/MPIMPISI-H.TELIKH.LUSH.2005.part2.rar.html
http://turbobit.net/ocq88gvna28i/MPIMPISI-H.TELIKH.LUSH.2005.part3.rar.html

Κωδικός αποσυμπίεσης:
thelwseires

Κατηγορία: ΑΛΛΑ ΚΑΝΑΛΙΑ (ΔΙΑΦΟΡΑ) |
Only registered users can add comments.
[ Registration | Login ]

Σύνδεση / Εγγραφή

Login:
Password:

Φιλικές Σελίδες

Αναζήτηση Σελίδας

Αναζήτηση Μέσω Google

EZ Archive