Saturday - Σάββατο, 17 April 2021, 03:40
Καλωσόρισες Guest | RSS

EZAccess Ελληνική Τηλεόραση

Κεντρική Σελίδα » 2013 » April - Απρίλιος » 12 » BRIDE OF THE GORILLA (1951) «ΕΝΣΩΜΑΤΩΜΕΝΟΙ ΕΛΛΗΝΙΚΟΙ ΥΠΟΤΙΤΛΟΙ»
BRIDE OF THE GORILLA (1951) «ΕΝΣΩΜΑΤΩΜΕΝΟΙ ΕΛΛΗΝΙΚΟΙ ΥΠΟΤΙΤΛΟΙ»


BRIDE OF THE GORILLA (1951) «ΕΝΣΩΜΑΤΩΜΕΝΟΙ ΕΛΛΗΝΙΚΟΙ ΥΠΟΤΙΤΛΟΙ»


Βαθιά στη ζούγκλα της Νότιας Αμερικής στήν φυτεία που ιδιοκτήτης είναι ο Barney Τσάβες (Raymond Burr) σκοτώνει τον ηλικιωμένο εργοδότη του, προκειμένου να πλησιάσει την όμορφη γυναίκα του (Barbara Payton). Ωστόσο, μια ντόπια γριά μάγισσα μάγισσα γίνεται μάρτυρας στο έγκλημα και καταριέται τον Barney, ο οποίος αμέσως μετά βρίσκει τον εαυτό του τις νύχτες να μετατρέπεται σε μαινόμενο γορίλα. Αλλά είναι όμως πραγματική αυτή η μεταμόρφωση του ή είναι όλα μέσα στο κεφάλι του;



Είδος Ταινίας: Horror
Director: Curt Siodmak
Writer: Curt Siodmak
Stars: Barbara Payton, Lon Chaney Jr. and Raymond Burr
Country: USA
Language: English
Greek subs
Runtime: 70 min
Release date: October 1951 (USA)




ΤΕΧΝΙΚΑ ΧΑΡΑΚΤΗΡΙΣΤΙΚΑ ΒΙΝΤΕΟ

General
Format                                   : AVI
Format/Info                              : Audio Video Interleave
File size                                : 725 MiB
Duration                                 : 1h 5mn
Overall bit rate                         : 1 556 Kbps

Video
ID                                       : 0
Format                                   : MPEG-4 Visual
Format profile                           : Simple@L3
Format settings, BVOP                    : No
Format settings, QPel                    : No
Format settings, GMC                     : No warppoints
Format settings, Matrix                  : Default (H.263)
Codec ID                                 : XVID
Codec ID/Hint                            : XviD
Duration                                 : 1h 5mn
Bit rate                                 : 1 421 Kbps
Width                                    : 720 pixels
Height                                   : 576 pixels
Display aspect ratio                     : 5:4
Frame rate                               : 25.000 fps
Standard                                 : PAL
Color space                              : YUV
Chroma subsampling                       : 4:2:0
Bit depth                                : 8 bits
Scan type                                : Progressive
Compression mode                         : Lossy
Bits/(Pixel*Frame)                       : 0.137
Stream size                              : 662 MiB (91%)
Writing library                          : ZJMedia MPEG Encoder

Audio
ID                                       : 1
Format                                   : MPEG Audio
Format version                           : Version 1
Format profile                           : Layer 3
Mode                                     : Joint stereo
Mode extension                           : MS Stereo
Codec ID                                 : 55
Codec ID/Hint                            : MP3
Duration                                 : 1h 5mn
Bit rate mode                            : Constant
Bit rate                                 : 128 Kbps
Channel(s)                               : 2 channels
Sampling rate                            : 44.1 KHz
Compression mode                         : Lossy
Stream size                              : 59.7 MiB (8%)
Alignment                                : Split accross interleaves
Interleave, duration                     : 1000 ms (25.00 video frames)


http://4.bp.blogspot.com/_7wsQzULWIwo/SwALMl0nnQI/AAAAAAAACLs/Hm8u1Jqo0YY/s400/download-orig.png

NYFH.GKORILA.1951.AVI

Κατηγορία: ΑΛΛΑ ΚΑΝΑΛΙΑ (ΔΙΑΦΟΡΑ) |
Only registered users can add comments.
[ Registration | Login ]

Σύνδεση / Εγγραφή

Login:
Password:

Φιλικές Σελίδες

Αναζήτηση Σελίδας

Αναζήτηση Μέσω Google

EZ Archive