Sunday - Κυριακή, 11 April 2021, 17:09
Καλωσόρισες Guest | RSS

EZAccess Ελληνική Τηλεόραση

Κεντρική Σελίδα » 2013 » September - Σεπτέμβριος » 13 » ΕΚΚΟΛΑΠΤΟΝΤΑΣ ΤΟΝ ΠΙΤ (2009) - HATCHING PETE «ΜΕΤΑΓΛΩΤΤΙΣΜΕΝΟ ΣΤΑ ΕΛΛΗΝΙΚΑ»
ΕΚΚΟΛΑΠΤΟΝΤΑΣ ΤΟΝ ΠΙΤ (2009) - HATCHING PETE «ΜΕΤΑΓΛΩΤΤΙΣΜΕΝΟ ΣΤΑ ΕΛΛΗΝΙΚΑ»


ΕΚΚΟΛΑΠΤΟΝΤΑΣ ΤΟΝ ΠΙΤ (2009) - HATCHING PETE «ΜΕΤΑΓΛΩΤΤΙΣΜΕΝΟ ΣΤΑ ΕΛΛΗΝΙΚΑ»

Director: Stuart Gillard
Writer: Paul W. Cooper
Stars: Jason Dolley, Mitchel Musso, Tiffany Thornton, Josie Loren, Sean O'Bryan
Τύπος αρχείου: Μp4
Μέγεθος: 891 ΜΒ
Διάρκεια: 85 λεπτά

O Cleatis Poole (Mitchel Musso) είναι η νέα μασκότ της ομάδας μπάσκετ του λυκείου του.Μόνο που διαπιστώνει πως υπάρχει ένα μεγάλο πρόβλημα στο να μπορέσει να παραμείνει η μασκότ της ομάδας του. Είναι αλεργικός στα φτερά της στολής.Έτσι πείθει τον καλύτερό του φίλο τον Pete Ivey(Jason Dolley) να φορέσει αυτός τη στολή και απλά ο ίδιος να κρύβεται στις κερκίδες μεταμφιεσμένος.Ο Pete είναι ένας εσωστρεφής και πολύ δειλός χαρακτήρας και ταυτόχρονα είναι ερωτευμένος με την αδερφή του Cleatis Αυτό φυσικά το γνωρίζει ο Cleatis και τον εκμεταλλεύεται υποσχόμενος να μεσολαβήσει για να τους τα "φτιάξει" όσο αυτός θα φοράει το κοστούμι του κόκορα και θα κάνει τη μασκότ. Ο Pete όμως κρυμμένος κάτω από τη στολή αποκτά το θάρρος που δεν είχε ποτέ του και κάνει καταπληκτικές ατάκες στο γήπεδο ξεσηκώνοντας όλο το πλήθος.Σιγά σιγά γίνεται η ατραξιόν του γηπέδου και ο κόσμος συρέει για να θαυμάσει αυτόν τον καταπληκτικό κόκορα που μαγεύει τους θεατές.Ο Cleatis απολαμβάνει τη δημοσιότητα για κάτι που δεν έχει κάνει ποτέ αλλά ο κόσμος νομίζει ότι κάτω από το κοστούμι είνια ο ίδιος και όχι ο Pete! Κάποια στιγμή ο Pete βρίσκει την πραγματική αγάπη στο πρόσωπο κάποιας άλλης κοπέλας αλλά και το θάρρος να εμφανίσει το πρόσωπό του στο κατάμεστο γήπεδο.Η ομάδα του επίσης ανεβασμένη ψυχολογικά από τον κόσμο που γέμιζε συνεχώς το γήπεδο καταφέρνει να κατακτήσει το σχολικό πρωτάθλημα, και ο Pete την καρδιά της αγαπημένης του! Πολύ εύστοχος λοιπόν ο τίτλος της ταινίας: Hatching Pete (Εκκολάπτοντας τον Pete)



Format                         : MPEG-4
Format profile                 : Base Media
Codec ID                       : isom
File size                      : 1.14 GiB
Duration                       : 1h 24mn
Overall bit rate mode          : Variable
Overall bit rate               : 1 922 Kbps
Writing application            : Lavf52.84.0

Video
ID                             : 1
Format                         : MPEG-4 Visual
Format profile                 : Simple@L3
Format settings, BVOP          : No
Format settings, QPel          : No
Format settings, GMC           : No warppoints
Format settings, Matrix        : Default (H.263)
Codec ID                       : 20
Duration                       : 1h 24mn
Bit rate                       : 1 788 Kbps
Width                          : 720 pixels
Height                         : 536 pixels
Display aspect ratio           : 4:3
Frame rate mode                : Constant
Frame rate                     : 25.000 fps
Color space                    : YUV
Chroma subsampling             : 4:2:0
Bit depth                      : 8 bits
Scan type                      : Progressive
Compression mode               : Lossy
Bits/(Pixel*Frame)             : 0.185
Stream size                    : 1.06 GiB (93%)
Writing library                : ZJMedia MPEG Encoder

Audio
ID                             : 2
Format                         : AAC
Format/Info                    : Advanced Audio Codec
Format profile                 : LC
Codec ID                       : 40
Duration                       : 1h 24mn
Bit rate mode                  : Variable
Bit rate                       : 128 Kbps
Channel(s)                     : 2 channels
Channel positions              : Front: L R
Sampling rate                  : 48.0 KHz
Compression mode               : Lossy
Stream size                    : 77.5 MiB (7%)


Κατεβάστε εδώ:

Ekolaptontas.tvon.Petro.mp4

Κατηγορία: ΑΛΛΑ ΚΑΝΑΛΙΑ (ΔΙΑΦΟΡΑ) |
Only registered users can add comments.
[ Registration | Login ]

Σύνδεση / Εγγραφή

Login:
Password:

Φιλικές Σελίδες

Αναζήτηση Σελίδας

Αναζήτηση Μέσω Google

EZ Archive