Monday - Δευτέρα, 19 April 2021, 12:20
Καλωσόρισες Guest | RSS

EZAccess Ελληνική Τηλεόραση

Κεντρική Σελίδα » 2012 » August - Αύγουστος » 30 » GET SMART [1969-1970] (ΣΕΖΟΝ 4) - GET SMART (SEASON 4) [ΕΝΣΩΜΑΤΩΜΕΝΟΙ ΕΛΛΗΝΙΚΟΙ ΥΠΟΤΙΤΛΟΙ]
GET SMART [1969-1970] (ΣΕΖΟΝ 4) - GET SMART (SEASON 4) [ΕΝΣΩΜΑΤΩΜΕΝΟΙ ΕΛΛΗΝΙΚΟΙ ΥΠΟΤΙΤΛΟΙ]


GET SMART [1969-1970] (ΣΕΖΟΝ 4) - GET SMART (SEASON 4) [ΕΝΣΩΜΑΤΩΜΕΝΟΙ ΕΛΛΗΝΙΚΟΙ ΥΠΟΤΙΤΛΟΙ]


Πρόκειται για μία από τις πρώτες τηλεοπτικές σειρές στην ιστορία της αμερικανικής τηλεόρασης που σατιρίζει την κινηματογραφική φιγούρα του μυστικού κατάσκοπου. Πρωταγωνιστής, ο Μάξουελ Σμαρτ, κατάσκοπος «86», και μαζί του η κατάσκοπος «99», οι οποίοι υπηρετούν τη μυστική αμερικανική υπηρεσία. Ο ένας εκ των δημιουργών, Μπακ Χένρι, ομολογεί ότι συνέλλαβε την ιδέα της σειράς, θέλοντας να δημιουργήσει κάτι που θα συνδύαζε τις «δύο πιο απολαυστικές κινηματογραφικές φιγούρες εκείνης της εποχής: τον Τζέιμς Μποντ και τον επιθεωρητή Κλουζό!» Ο Μελ Μπρουκς, έτερος δημιουργός, ομολογεί ότι πρόκειται για έναν «θεότρελο συνδυασμό του Τζέιμς Μποντ και των κωμωδιών μου».
Η σειρά απέσπασε συνολικά 7 βραβεία ΕΜΜΥ, και προτάθηκε για άλλα 14. Η ανικανότητα του Σμαρτ, σε συνδυασμό με τις πανέξυπνες «από μηχανής θεού» παρεμβάσεις της τύχης, δημιουργούν έναν κόσμο παράλογο και αστείο, αλλόκοτο και απολαυστικό. Ο Ντον Άνταμς, από τους διασημότερους ηθοποιούς της εποχής εκείνης, λόγω της τεράστιας επιτυχίας της σειράς, καταφέρνει να αναδείξει αυτό τον εξαιρετικό χαρακτήρα δίνοντας με την ερμηνεία του τις σωστές δόσεις κάθε φορά: ανοησία και αθωότητα, καλοσύνη και κατεργαριά, επιμονή και αδεξιότητα, συνδυάζονται με τρόπο πάντα μετρημένο και υπολογισμένο, αποφεύγοντας έτσι την παγίδα της παρωχημένης καρικατούρας.

Παραγωγή: ΗΠΑ
Παίζουν: Ντον Άνταμς, Μπάρμπαρα Φέλντον
~~~~~~~~~~~~~~~~~~~~~~~~~~~~~~~~~~~~~~~~~
Κυκλοφορία: 1969
Διάρκεια επεισοδίων: 25'
Είδος: Κωμωδία
Σκηνοθεσία: Mel Brooks, Buck Henry
Σενάριο: Mel Brooks, Buck Henry
Παίζουν: Don Adams, Barbara Feldon, Edward Platt
Υπότιτλοι
: Ενσωματωμένοι





Τεχνικά χαρακτηριστικά
Format                           : AVI
Format/Info                      : Audio Video Interleave
File size                        : 176 MiB
Duration                         : 24mn 43s
Overall bit rate                 : 994 Kbps
Writing application              : VirtualDubMod 1.5.10.2 (build 2542/release)
Writing library                  : VirtualDubMod build 2542/release

Video
ID                               : 0
Format                           : MPEG-4 Visual
Format profile                   : Advanced Simple@L5
Format settings, BVOP            : 1
Format settings, QPel            : No
Format settings, GMC             : No warppoints
Format settings, Matrix          : Default (H.263)
Muxing mode                      : Packed bitstream
Codec ID                         : XVID
Codec ID/Hint                    : XviD
Duration                         : 24mn 43s
Bit rate                         : 914 Kbps
Width                            : 576 pixels
Height                           : 432 pixels
Display aspect ratio             : 4:3
Frame rate                       : 23.976 fps
Color space                      : YUV
Chroma subsampling               : 4:2:0
Bit depth                        : 8 bits
Scan type                        : Progressive
Compression mode                 : Lossy
Bits/(Pixel*Frame)               : 0.153
Stream size                      : 162 MiB (92%)
Writing library                  : XviD 62

Audio
ID                               : 1
Format                           : MPEG Audio
Format version                   : Version 1
Format profile                   : Layer 3
Codec ID                         : 55
Codec ID/Hint                    : MP3
Duration                         : 24mn 37s
Bit rate mode                    : Variable
Bit rate                         : 68.0 Kbps
Minimum bit rate                 : 32.0 Kbps
Channel(s)                       : 1 channel
Sampling rate                    : 48.0 KHz
Compression mode                 : Lossy
Stream size                      : 12.0 MiB (7%)
Alignment                        : Aligned on interleaves
Interleave, duration             : 24 ms (0.58 video frame)
Interleave, preload duration     : 271 ms
Writing library                  : LAME3.96
Encoding settings                : -m m -V 4 -q 3 -lowpass 18 --vbr-old -b 32






E3ypnakias.4.part1.rar

E3ypnakias.4.part2.rar

E3ypnakias.4.part3.rar

E3ypnakias.4.part4.rar

ή

http://depositfiles.com/files/j2i0ykfei E3ypnakias.4.part1.rar
http://depositfiles.com/files/5q2m9fucn E3ypnakias.4.part2.rar
http://depositfiles.com/files/in6mofqmz E3ypnakias.4.part3.rar
http://depositfiles.com/files/1o8smzan4 E3ypnakias.4.part4.rar

ή

http://www.netload.in/dateiEA9cJN7zWD/E3ypnakias.4.part1.rar.htm
http://www.netload.in/datei21VUOOLsDW/E3ypnakias.4.part2.rar.htm
http://www.netload.in/dateiuHiQXiFxff/E3ypnakias.4.part3.rar.htm
http://www.netload.in/dateikMnuuSO8h9/E3ypnakias.4.part4.rar.htm

Pass: thelwseires

Κατηγορία: ΑΛΛΑ ΚΑΝΑΛΙΑ (ΔΙΑΦΟΡΑ) |
Only registered users can add comments.
[ Registration | Login ]

Σύνδεση / Εγγραφή

Login:
Password:

Φιλικές Σελίδες

Αναζήτηση Σελίδας

Αναζήτηση Μέσω Google

EZ Archive