Wednesday - Τετάρτη, 21 April 2021, 01:20
Καλωσόρισες Guest | RSS

EZAccess Ελληνική Τηλεόραση

Κεντρική Σελίδα » 2013 » March - Μάρτιος » 1 » ΓΚΑΝΤΙ (1982) - GANDHI «ΕΛΛΗΝΙΚΟΙ ΥΠΟΤΙΤΛΟΙ»
ΓΚΑΝΤΙ (1982) - GANDHI «ΕΛΛΗΝΙΚΟΙ ΥΠΟΤΙΤΛΟΙ»


ΓΚΑΝΤΙ (1982) - GANDHI.720p.BluRay.x264-SiNNERS «ΕΛΛΗΝΙΚΟΙ ΥΠΟΤΙΤΛΟΙ»


Βιογραφική
Aγγλική παραγωγή του 1982
Σκηνοθεσία: Ρίτσαρντ Ατένμπορο
Παίζουν: Μπεν Κίνγκσλεϊ, Κάντις Μπέργκεν, 'Εντουαρντ Φοξ, Τζον Γκίλγκουντ, Τρέβορ Χάουαρντ, Μάρτιν Σιν, Τζον Μάιλς
Διάρκεια: 180 λεπτά

Περιγραφή: Η αριστουργηματική ταινία "Γκάντι" είναι μια βιογραφική και ιστορική συγχρόνως ταινία, που αφηγείται τη ζωή του ανθρώπου που οδήγησε ουσιαστικά την Ινδία στην ανεξαρτησία της από την αγγλική κυριαρχία. Ο Μοχάντας Καραμσάν Γκάντι γεννήθηκε στο Πορμπαντάρ της Ινδίας,τον Οκτώβριο του 1869. Επισκέφτηκε την Αγγλία για πρώτη φορά το 1888 για σπουδές στις πολιτικές επιστήμες και, μετά, πριν επιστρέψει στην πατρίδα του (το 1914), επισκέφθηκε την Σαουδική Αραβία.

Ο Γκάντι, κατεχόμενος από βαθύ θρησκευτικό συναίσθημα και αγάπη για τη χώρα του, ξεκινάει έναν αγώνα για την αποτίναξη του αγγλικού ζυγού.Μετά από σκληρό και μακρύ αγώνα πετυχαίνει το σκοπό του,προσπαθώντας παντοτε να τηρεί απαρέγκλιτα το βασικό του "πιστεύω":την αποφυγή χρήσης βίας. Ο αγώνας του, όπως ήταν φυσικό προκάλεσε το μένος των Βρετανών:'Αλλωστε, προφανώς αυτοί βρίσκονται πίσω από το βίαιο θάνατό του: ο Γκάντι δολοφονήται το 1948 στην Μπίρλα του Δελχί.

Η ταινία του Ρίτσαρντ Ατένμπορο είναι μια λαμπρή παραγωγή, ένα σύγχρονο επικό φιλμ τρίωρης διάρκειας, που απέσπασε τις καλύτερες κριτικές και τιμήθηκε με οκτώ 'Οσκαρ: καλύτερης ταινίας, σκηνοθεσίας, σεναρίου (στον Τζον Μπρίλεϊ) φωτογραφίας (στους Μπίλι Γουίλιαμς και Ρόνι Τέιλορ), πρώτου αντρικού ρόλου (στον Μπεν Κίνγκσλεϊ), κοστουμιών (στους Τζον Μόλο και Μπανού Αθάλια), καλλιτεχνικής διεύθυνσης (στους Στιούαρτ Κρεγκ και Μπομπ Λενγκ) και μοντάζ (στον Τζον Μπλουμ).








Technical Info:
Complete name    : Gandhi.1982.720p.BluRay.x264-SiNNERS.mkv
Format                           : Matroska
File size                        : 6.56 GiB
Duration                         : 3h 11mn
Overall bit rate                 : 4 908 Kbps
Encoded date                     : UTC 2009-02-18 08:32:42
Writing application              : mkvmerge v2.4.1 ('Use Me') built on Dec  5 2008 18:30:05
Writing library                  : libebml v0.7.7 + libmatroska v0.8.1

Video
ID                               : 1
Format                           : AVC
Format/Info                      : Advanced Video Codec
Format profile                   : High@L3.1
Format settings, CABAC           : Yes
Format settings, ReFrames        : 5 frames
Codec ID                         : V_MPEG4/ISO/AVC
Duration                         : 3h 11mn
Bit rate                         : 4 265 Kbps
Width                            : 1 280 pixels
Height                           : 544 pixels
Display aspect ratio             : 2.35:1
Frame rate                       : 23.976 fps
Color space                      : YUV
Chroma subsampling               : 4:2:0
Bit depth                        : 8 bits
Scan type                        : Progressive
Bits/(Pixel*Frame)               : 0.255
Stream size                      : 5.57 GiB (85%)
Writing library                  : x264 core 66 r1114 a933a3e
Language                         : English

Audio
ID                               : 2
Format                           : AC-3
Format/Info                      : Audio Coding 3
Mode extension                   : CM (complete main)
Codec ID                         : A_AC3
Duration                         : 3h 11mn
Bit rate mode                    : Constant
Bit rate                         : 640 Kbps
Channel(s)                       : 6 channels
Channel positions                : Front: L C R, Side: L R, LFE
Sampling rate                    : 48.0 KHz
Bit depth                        : 16 bits
Compression mode                 : Lossy
Stream size                      : 875 MiB (13%)

Text
ID                               : 3
Format                           : UTF-8
Codec ID                         : S_TEXT/UTF8
Codec ID/Info                    : UTF-8 Plain Text
Language                         : English

Κατηγορία: ΑΛΛΑ ΚΑΝΑΛΙΑ (ΔΙΑΦΟΡΑ) |
Only registered users can add comments.
[ Registration | Login ]

Σύνδεση / Εγγραφή

Login:
Password:

Φιλικές Σελίδες

Αναζήτηση Σελίδας

Αναζήτηση Μέσω Google

EZ Archive