Sunday - Κυριακή, 11 April 2021, 18:18
Καλωσόρισες Guest | RSS

EZAccess Ελληνική Τηλεόραση

Κεντρική Σελίδα » 2014 » April - Απρίλιος » 4 » GREEK DIVER: ΝΑΥΑΓΙΟ ΝΕΣΤΟΣ (DVD) - Greek Diver Magazine - Dive in Nestos Shipwreck
GREEK DIVER: ΝΑΥΑΓΙΟ ΝΕΣΤΟΣ (DVD) - Greek Diver Magazine - Dive in Nestos Shipwreck


GREEK DIVER: ΝΑΥΑΓΙΟ ΝΕΣΤΟΣ (DVD) - Greek Diver Magazine - Dive in Nestos Shipwreck

Στην σημερινή θέση Ψαθόπυργος κοντά στην Πάτρα βρίσκεται το ναυάγιο του Ναρκαλιευτικού Νέστος που βυθίστηκε στις 23 Απριλίου του 1941 από την Γερμανική αεροπορία.
Το Νέστος ήταν ένα από τα τέσσερα Ναρκαλιευτικά που αγοράστηκαν από την κυβέρνηση του Ιωάννη Μεταξά το 1938 (τα υπόλοιπα τρία ήταν τα Στρυμών, Αξιός, Αλιάκμων) και τα τέσσερα παραπάνω πλοία ήταν τροποποιημένα αλιευτικά.
Μοντέλο του αλιευτικού ARCTIC RANGER (το μετέπειτα ΝΕΣΤΟΣ) πριν διασκευαστεί σε ναρκαλιευτικό.
Το Νέστος είχε κατασκευαστεί στο Ναυπηγείο του Selby τον Νοέμβρη του 1925 για λογαριασμό της εταιρίας Pickering & Haldane με αρχικό όνομα Lord Bradbury. Είχε συνολικό μήκος 134.8 ποδών, πλάτος 23.9 και βάθος 14 ποδών. Η μέγιστη ταχύτητα του ήταν 9 κόμβοι, ενώ μετά την μετατροπή του έφερε πυροβόλο όπλο 37 χιλιοστών, δεύτερο πυροβόλο μικρότερου διαμετρήματος και την δυνατότητα μεταφοράς ως 40 ναρκών.
Τον Απρίλιο του 1941 το Νέστος φορτωμένο με φαρμακευτικό υλικό και τρόφιμα δέχθηκε επίθεση στο λιμάνι της Πάτρας από γερμανικά βομβαρδιστικά κάθετου εφορμήσεως (Στούκα). Με φόβο το πλοίο να βυθιστεί στο εσωτερικό του λιμανιού διατάχθηκε να αποπλεύσει προς την περιοχή του Ψαθόπυργου.
Παρά τις ζημιές που είχε υποστεί από την πρώτη επίθεση το Νέστος έφτασε στον προορισμό του. Εκεί δέχθηκε επίθεση για δεύτερη φορά. Ο κυβερνήτης του υπό τον φόβο το πλοίο να βυθιστεί και να χαθεί το πολύτιμο φορτίο του αποφάσισε να το προσγυαλώσει.Έτσι με την βοήθεια των κατοίκων της περιοχής διασώθηκε το μεγαλύτερο μέρος του φορτίου του.
Ότι όμως δεν κατάφεραν οι κατακτητές λίγο έλειψε να τα καταφέρει το Ελληνικό κράτος όπως σε πολλές περιπτώσεις στο παρελθόν που σημαντικότατα ναυάγια έχουν κοπεί και χρησιμοποιηθεί ως παλιοσίδερα.
Το 1959 γίνεται προσπάθεια μεταφοράς του ΝΕΣΤΟΣ σε διαλυτήριο πλοίων. Στην επιχείρηση ενώ είχε μεταφερθεί για μερικά μέτρα, κάτι πήγε στραβά με αποτέλεσμα να βουλιάξει, συμπαρασύροντας μαζί του και τον πλωτό γερανό Άγιο Γεώργιο.
Σήμερα το «Νέστος» βρίσκεται βυθισμένο μπροστά ακριβώς στο σημείο που είχε βομβαρδιστεί στον πόλεμο σε μικρή απόσταση από την ακτή και σε κατωφερικό βυθό και σε βάθος από 24 – 45 μέτρα. Στα 24 μέτρα συναντάμε την πρύμνη του.

Στο βίντεο αυτό του περιοδικού αυτόνομης κατάδυσης "Greek Diver" θα έχετε την ευκαιρία - χωρίς να βρέξετε τα ποδαράκια σας - να βουτήξετε στην ιστορία.



Format : Matroska
Format version : Version 1
File size : 333 MiB
Duration : 32mn 58s
Overall bit rate : 1 413 Kbps
Encoded date : UTC 2014-02-22 23:48:48
Writing application : AVSMatroskaFile
Writing library : libebml v0.7.7 + libmatroska v0.8.1

Video
ID : 1
Format : AVC
Format/Info : Advanced Video Codec
Format profile : Main@L5.1
Format settings, CABAC : Yes
Format settings, ReFrames : 1 frame
Codec ID : V_MPEG4/ISO/AVC
Duration : 32mn 58s
Bit rate : 1 161 Kbps
Width : 720 pixels
Height : 576 pixels
Display aspect ratio : 5:4
Frame rate mode : Constant
Frame rate : 25.000 fps
Standard : PAL
Color space : YUV
Chroma subsampling : 4:2:0
Bit depth : 8 bits
Scan type : Progressive
Bits/(Pixel*Frame) : 0.112
Stream size : 274 MiB (82%)
Default : Yes
Forced : No

Audio
ID : 2
Format : MPEG Audio
Format version : Version 1
Format profile : Layer 3
Codec ID : A_MPEG/L3
Codec ID/Hint : MP3
Duration : 32mn 58s
Bit rate mode : Constant
Bit rate : 224 Kbps
Channel count : 2 channels
Sampling rate : 48.0 KHz
Compression mode : Lossy
Stream size : 52.8 MiB (16%)
Default : Yes
Forced : No



Κατεβάστε εδώ:
Greek.Diver.Nestos.mkv

Κωδικός αποσυμπίεσης των αρχείων rar:
thelwseires
Κατηγορία: ΑΛΛΑ ΚΑΝΑΛΙΑ (ΔΙΑΦΟΡΑ) |
Only registered users can add comments.
[ Registration | Login ]

Σύνδεση / Εγγραφή

Login:
Password:

Φιλικές Σελίδες

Αναζήτηση Σελίδας

Αναζήτηση Μέσω Google

EZ Archive