Tuesday - Τρίτη, 13 April 2021, 21:04
Καλωσόρισες Guest | RSS

EZAccess Ελληνική Τηλεόραση

Κεντρική Σελίδα » 2012 » October - Οκτώβριος » 26 » Η ΔΑΣΚΑΛΑ ΜΕ ΤΑ ΞΑΝΘΑ ΜΑΛΛΙΑ (1969) «Αλίκη Βουγιουκλάκη, Δημήτρης Παπαμιχαήλ, Παντελής Ζερβός»
Η ΔΑΣΚΑΛΑ ΜΕ ΤΑ ΞΑΝΘΑ ΜΑΛΛΙΑ (1969) «Αλίκη Βουγιουκλάκη, Δημήτρης Παπαμιχαήλ, Παντελής Ζερβός»


Η ΔΑΣΚΑΛΑ ΜΕ ΤΑ ΞΑΝΘΑ ΜΑΛΛΙΑ (1969)  «Αλίκη Βουγιουκλάκη, Δημήτρης Παπαμιχαήλ, Παντελής Ζερβός»


ΕΙΔΟΣ ΤΑΙΝΙΑΣ: ΔΡΑΜΑ - ΠΟΛΕΜΙΚΗ
Διάρκεια:       96 λεπτά
Σκηνοθεσία: Ντίνος Δημόπουλος
Σενάριο: Ανθή Δημοπούλου,Λάκης Μιχαηλίδης
Μουσική: Νίκος Μαμαγκάκης
Φωτογραφία: Γιώργος Αρβανίτης
Μοντάζ: Βασίλης Συρόπουλος
Μηχανικός ήχου: Μικές Δαμαλάς
Σκηνογραφία: Μάρκος Ζέρβας
Χορογραφία: Γιάννης Φλερύ
Φροντιστήριο: Παντελής Παλιεράκης
Διεύθυνση: Μάρκος Ζέρβας
Παραγωγή:       FINOS FILM

ΠΡΩΤΑΓΩΝΙΣΤΟΥΝ
Αλίκη Βουγιουκλάκη........Μυρτώ Θεοδώρου - Καρατάσου
Δημήτρης Παπαμιχαήλ.......Στέφανος Καρατάσος
Παντελής Ζερβός...........Παναγής Καρατάσος
Σπύρος Καλογήρου..........Σωτήρης Γαρμπής
Άγγελος Αντωνόπουλος......Άγγελος
Νότης Περγιάλης...........Αρτέμιος Αρχοντόπουλος



1940.Σ’ένα μικρό χωριό,λίγο πριν ξεσπάσει ο Ελληνοϊταλικός πόλεμος,
καταφθάνει η καινούρια δασκάλα,η Μυρτώ Θεοδώρου,για να
αντικαταστήσει τον γερασμένο πια δάσκαλο.Γεμάτη αγάπη για τη δουλειά
της και για τα μικρά παιδιά,προσπαθεί να εφαρμόσει
ένα καινούριο εκπαιδευτικό σύστημα,χωρίς καταπιεστικά μέτρα.

Όμως,οι γονείς δεν εγκρίνουν τις νέες αυτές μεθόδους της.Μάλιστα,η κατακραυγή εναντίον της κορυφώνεται όταν γίνεται γνωστός
ο δεσμός της με τον Στέφανο,τον γιο του προέδρου του χωριού.

Τη μέρα,που το ερωτευμένο ζευγάρι,παντρεύεται κυρρήσεται ο πόλεμος
και ο Στέφανος φεύγει για να υπηρετήσει την πατρίδα.

Γρήγορα όμως τα νέα,που φτάνουν από το Μέτωπο είναι δυσάρεστα καθώς ο Στέφανος σκοτώνεται και η Μυρτώ μένει μόνη,με πολλούς από τους συγχωριανούς να της κάνουν τη ζωή δύσκολη.Τα χρόνια της Γερμανικής κατοχής είναι πολύ σκληρά και η νεαρή δασκάλα αφοσιώνεται στους μαθητές της,έχοντας φύλακα-άγγελο τον συνάδελφό της,Άγγελο, που έχει μετατεθεί στο χωριό για χάρη της....

Με την απελευθέρωση και με τη σύμφωνη γνώμη του πεθερού της,η Μυρτώ αποδέχεται την πρόταση του Άγγελου να παντρευτούν.
Η επιστροφή του Στέφανου,που εντέλει δεν είχε πεθάνει αλλά νοσηλευόταν σε ιταλικό νοσοκομείο,δίνει στην ταινία το ευτυχισμένο τέλος.



Η δασκάλα με τα ξανθιά μαλλιά ξεκίνησε με άλλο τίτλο.
Στην αρχή ονομαζόταν "Η δασκάλα με τα χρυσά μαλλιά" και μάλιστα είχαν
τυπωθεί και αφίσες με αυτό τον τίτλο.Όμως δημιουργήθηκε ένα πρόβλημα με τους κληρονόμους του Στρατή Μυριβήλη,του μεγάλου Έλληνα πεζογράφου,ο οποίος είχε γράψει το πολύ σημαντικό μυθιστόρημα "Η δασκάλα με τα χρυσά μάτια" και τελευταία στιγμή άλλαξε ο τίτλος.

Ήταν μια πλούσια παραγωγή της Φίνος Φιλμ γυρισμένη στη Μακρινίτσα του Πηλίου στο νομό Μαγνησίας και εντασσόταν στη μόδα εκείνης
της εποχής με τις ταινίες που τοποθετούνταν η δράση τους στον πόλεμο του 1940.

«Η δασκάλα με τα ξανθά μαλλιά» ήταν η τρίτη πιο εμπορική ταινία στην
ιστορία του παλιού ελληνικού κινηματογράφου, μετά τις
«Υπολοχαγός Νατάσα» του Νίκου Φώσκολου  και «Η Αρχόντισσα και ο Αλήτης» του Ντίνου Δημόπουλου,έχοντας «κόψει» 739.001 εισιτήρια.





General
Format                           : MPEG-4
Format profile                   : Base Media / Version 1
Codec ID                         : mp41
File size                        : 994 MiB
Duration                         : 1h 35mn
Overall bit rate                 : 1 456 Kbps
Encoded date                     : UTC 2008-01-19 10:14:08
Tagged date                      : UTC 2008-01-19 10:14:08

Video
ID                               : 3
Format                           : MPEG-4 Visual
Format profile                   : Advanced Simple@L5
Format settings, BVOP            : Yes
Format settings, QPel            : No
Format settings, GMC             : No warppoints
Format settings, Matrix          : Default (H.263)
Codec ID                         : 20
Duration                         : 1h 35mn
Bit rate mode                    : Variable
Bit rate                         : 1 365 Kbps
Maximum bit rate                 : 3 951 Kbps
Width                            : 624 pixels
Height                           : 480 pixels
Display aspect ratio             : 1.300
Frame rate mode                  : Constant
Frame rate                       : 25.000 fps
Color space                      : YUV
Chroma subsampling               : 4:2:0
Bit depth                        : 8 bits
Scan type                        : Progressive
Bits/(Pixel*Frame)               : 0.182
Stream size                      : 933 MiB (94%)
Writing library                  : em4v 4.1.6.5
Language                         : English
Encoded date                     : UTC 2008-01-19 10:14:08
Tagged date                      : UTC 2008-01-19 10:14:08

Audio
ID                               : 4
Format                           : AAC
Format/Info                      : Advanced Audio Codec
Format version                   : Version 4
Format profile                   : LC
Format settings, SBR             : No
Codec ID                         : 40
Duration                         : 1h 35mn
Bit rate mode                    : Variable
Bit rate                         : 80.0 Kbps
Maximum bit rate                 : 83.3 Kbps
Channel(s)                       : 2 channels
Channel positions                : Front: L R
Sampling rate                    : 44.1 KHz
Stream size                      : 54.6 MiB (5%)
Title                            : Ήχος Nero Digital 2-ch Ελληνι
Language                         : Greek
Encoded date                     : UTC 2008-01-19 10:14:08
Tagged date                      : UTC 2008-01-19 10:14:08

Text
ID                               : 5
Format                           : VobSub
Codec ID                         : subp
Codec ID/Info                    : The same subtitle format used on DVDs
Duration                         : 1h 35mn
Bit rate mode                    : Variable
Bit rate                         : 3 918 bps
Stream size                      : 2.68 MiB (0%)
Title                            : Ελληνικά
Language                         : Greek
Encoded date                     : UTC 2008-01-19 10:14:08
Tagged date                      : UTC 2008-01-19 10:14:08








Οι ευχαριστίες στον DRACULASEDESSA.

http://4.bp.blogspot.com/_7wsQzULWIwo/SwALMl0nnQI/AAAAAAAACLs/Hm8u1Jqo0YY/s400/download-orig.png

H.DASKALA.ME.TA.XRYSA.MALLIA.mp4

ή

H.DASKALA.ME.TA.XRYSA.MALLIA.mp4
Κατηγορία: ΑΛΛΑ ΚΑΝΑΛΙΑ (ΔΙΑΦΟΡΑ) |
Only registered users can add comments.
[ Registration | Login ]

Σύνδεση / Εγγραφή

Login:
Password:

Φιλικές Σελίδες

Αναζήτηση Σελίδας

Αναζήτηση Μέσω Google

EZ Archive