Sunday - Κυριακή, 21 July 2019, 13:24
Καλωσόρισες Guest | RSS

EZAccess Ελληνική Τηλεόραση

Κεντρική Σελίδα » 2013 » January - Ιανουάριος » 15 » Η ΛΑΙΔΗ ΚΑΙ Ο ΑΛΗΤΗΣ 1 - Lady and the Tramp 1955 «ΜΕΤΑΓΛΩΤΤΙΣΜΕΝΟ ΣΤΑ ΕΛΛΗΝΙΚΑ»
Η ΛΑΙΔΗ ΚΑΙ Ο ΑΛΗΤΗΣ 1 - Lady and the Tramp 1955 «ΜΕΤΑΓΛΩΤΤΙΣΜΕΝΟ ΣΤΑ ΕΛΛΗΝΙΚΑ»


Η ΛΑΙΔΗ ΚΑΙ Ο ΑΛΗΤΗΣ 1 - Lady and the Tramp 1955 1080p BluRay DTS x264-HDMaNiAcS «ΜΕΤΑΓΛΩΤΤΙΣΜΕΝΟ ΣΤΑ ΕΛΛΗΝΙΚΑ»


Τύπος: 1080p
Aνάλυση: 1920x750
Είδος ταινίας: ΚΙΝΟΥΜΕΝΑ ΣΧΕΔΙΑ
Ημερομηνία Παραγωγής: 1955
Σκηνοθεσία: Clyde Geronimi, Wilfred Jackson
Σενάριο: Ward Greene
Με τις φωνές των: Barbara Luddy, Larry Roberts, Peggy Lee
Χώρα παραγωγής: USA
Γλώσσα: ΑΓΓΛΙΚΑ/
ΕΛΛΗΝΙΚΑ

Διάρκεια: 01:16:24"
Υπότιτλοι: ΑΓΓΛΙΚΑ/ΔΑΝΕΖΙΚΑ/ΓΑΛΛΙΚΑ/
ΕΛΛΗΝΙΚΑ
(επιλογής μέσα στην ταινία)

ΠΕΡΙΓΡΑΦΗ:

Ένα μικρό κουταβάκι της γνώστης ράτσας των Κόκερ Σπανιέλ μεγαλώνει στο σπίτι του Τζίμη και της Αγάπης σαν σωστή πριγκίπισσα. Έτσι το όνομα Λαίδη χαρακτηρίζει όσο τίποτα άλλο την γλυκιά σκυλίτσα που είναι ιδιαίτερα συναισθηματική μα και με έντονο το αίσθημα της προστασίας για τα άτομα που την φροντίζουν και την αγαπούν. Η Λαίδη όμως γνωρίζει και ερωτεύεται ένα σκυλάκι του δρόμου, τον Αλήτη, έξυπνο, ιππότη, πονηρούλη και τσαχπίνη, καρδιοκατακτητή και η περιπέτεια αρχίζει όταν η θεία Σάρα, με τις δυο Σιαμέζες γάτες της έρχεται στο σπίτι της Λαίδης και αναστατώνουν την ζωή της.





General
Format : Matroska
Format version : Version 2
File size : 5.68 GiB
Duration : 1h 16mn
Overall bit rate : 10.6 Mbps
Encoded date : UTC 2012-02-04 07:56:32
Writing application : mkvmerge v5.2.1 ('A Far Off Place') built on Jan 2 2012 23:21:10
Writing library : libebml v1.2.3 + libmatroska v1.3.0

Video
ID : 1
Format : AVC
Format/Info : Advanced Video Codec
Format profile : High@L4.1
Format settings, CABAC : Yes
Format settings, ReFrames : 5 frames
Codec ID : V_MPEG4/ISO/AVC
Duration : 1h 16mn
Bit rate : 8 500 Kbps
Width : 1 920 pixels
Height : 750 pixels
Display aspect ratio : 2.560
Frame rate : 23.976 fps
Color space : YUV
Chroma subsampling : 4:2:0
Bit depth : 8 bits
Scan type : Progressive
Bits/(Pixel*Frame) : 0.246
Stream size : 4.42 GiB (78%)
Title : Lady.and.the.Tramp.1955.1080p.BluRay.DTS.x264-HDMaNiAcS
Writing library : x264 core 116 r2074 2641b9e
Encoding settings : cabac=1 / ref=5 / deblock=1:-1:-1 / analyse=0x3:0x113 / me=tesa / subme=11 / psy=1 / psy_rd=0.45:0.05 / mixed_ref=1 / me_range=24 / chroma_me=1 / trellis=2 / 8x8dct=1 / cqm=0 / deadzone=21,11 / fast_pskip=1 / chroma_qp_offset=-3 / threads=12 / sliced_threads=0 / nr=0 / decimate=1 / interlaced=0 / bluray_compat=0 / constrained_intra=0 / bframes=8 / b_pyramid=2 / b_adapt=2 / b_bias=0 / direct=3 / weightb=1 / open_gop=0 / weightp=2 / keyint=250 / keyint_min=23 / scenecut=40 / intra_refresh=0 / rc_lookahead=90 / rc=2pass / mbtree=1 / bitrate=8500 / ratetol=1.0 / qcomp=0.60 / qpmin=10 / qpmax=69 / qpstep=4 / cplxblur=20.0 / qblur=0.5 / ip_ratio=1.40 / aq=2:0.90
Language : English
Default : Yes
Forced : No

Audio #1
ID : 2
Format : DTS
Format/Info : Digital Theater Systems
Codec ID : A_DTS
Duration : 1h 16mn
Bit rate mode : Constant
Bit rate : 1 510 Kbps
Channel(s) : 6 channels
Channel positions : Front: L C R, Side: L R, LFE
Sampling rate : 48.0 KHz
Bit depth : 24 bits
Compression mode : Lossy
Stream size : 825 MiB (14%)
Language : English
Default : Yes
Forced : No

Audio #2
ID : 3
Format : AC-3
Format/Info : Audio Coding 3
Mode extension : CM (complete main)
Format settings, Endianness : Big
Codec ID : A_AC3
Duration : 1h 16mn
Bit rate mode : Constant
Bit rate : 640 Kbps
Channel(s) : 6 channels
Channel positions : Front: L C R, Side: L R, LFE
Sampling rate : 48.0 KHz
Bit depth : 16 bits
Compression mode : Lossy
Stream size : 350 MiB (6%)
Language : Greek
Default : No
Forced : No

Text #1
ID : 4
Format : UTF-8
Codec ID : S_TEXT/UTF8
Codec ID/Info : UTF-8 Plain Text
Language : English
Default : Yes
Forced : No

Text #2
ID : 5
Format : UTF-8
Codec ID : S_TEXT/UTF8
Codec ID/Info : UTF-8 Plain Text
Language : Greek
Default : No
Forced : No

Text #3
ID : 6
Format : UTF-8
Codec ID : S_TEXT/UTF8
Codec ID/Info : UTF-8 Plain Text
Language : Danish
Default : No
Forced : No

Text #4
ID : 7
Format : UTF-8
Codec ID : S_TEXT/UTF8
Codec ID/Info : UTF-8 Plain Text
Language : French
Default : No
Forced : No

http://4.bp.blogspot.com/_7wsQzULWIwo/SwALMl0nnQI/AAAAAAAACLs/Hm8u1Jqo0YY/s400/download-orig.png

H.LEDH.KAI.O.ALHTHS.1.mkv

Κωδικός αποσυμπίεσης:
thelwseires
Κατηγορία: ΑΛΛΑ ΚΑΝΑΛΙΑ (ΔΙΑΦΟΡΑ) |
Only registered users can add comments.
[ Registration | Login ]

Σύνδεση / Εγγραφή

Login:
Password:

Φιλικές Σελίδες

Αναζήτηση Σελίδας

Αναζήτηση Μέσω Google

EZ Archive